<?xml version="1.0" standalone="no"?>
<!DOCTYPE svg PUBLIC "-//W3C//DTD SVG 1.1//EN" "http://www.w3.org/Graphics/SVG/1.1/DTD/svg11.dtd" >
<svg xmlns="http://www.w3.org/2000/svg" xmlns:xlink="http://www.w3.org/1999/xlink" version="1.1">
<metadata>
Created by FontForge 20170924 at Sun Apr  7 13:20:41 2013
 By www-data
Copyright (c) 2013 Type-O-Tones. v1.0 by Jose M. Uros. Barcelona. All rights reserved.
</metadata>
<defs>
<font id="Arboria-Black" horiz-adv-x="590" >
  <font-face 
    font-family="Arboria-Black"
    font-weight="400"
    font-stretch="normal"
    units-per-em="1000"
    panose-1="2 0 5 6 2 0 0 2 0 4"
    ascent="796"
    descent="-204"
    x-height="511"
    cap-height="648"
    bbox="-87 -235 1325 1056"
    underline-thickness="36"
    underline-position="-76"
    unicode-range="U+0020-FB02"
  />
<missing-glyph horiz-adv-x="280" 
 />
    <glyph glyph-name="fi" unicode="fi" horiz-adv-x="640" 
d="M70 507v32q0 83 43.5 129t118.5 46q85 0 143 -29l-49 -133q-21 8 -40 8q-34 0 -34 -42v-11h100v-144h-100v-363h-182v363h-77v144h77zM406 0v511h182v-511h-182zM393 653q0 43 30.5 73.5t72.5 30.5q43 0 74 -30.5t31 -73.5q0 -42 -31 -72.5t-74 -30.5q-42 0 -72.5 30.5
t-30.5 72.5z" />
    <glyph glyph-name="fl" unicode="fl" horiz-adv-x="640" 
d="M70 507v32q0 83 43.5 129t118.5 46q85 0 143 -29l-49 -133q-21 8 -40 8q-34 0 -34 -42v-11h100v-144h-100v-363h-182v363h-77v144h77zM406 0v658h182v-658h-182z" />
    <glyph glyph-name=".notdef" horiz-adv-x="280" 
 />
    <glyph glyph-name=".null" horiz-adv-x="0" 
 />
    <glyph glyph-name="nonmarkingreturn" horiz-adv-x="333" 
 />
    <glyph glyph-name="space" unicode=" " horiz-adv-x="222" 
 />
    <glyph glyph-name="exclam" unicode="!" horiz-adv-x="304" 
d="M79 241l-15 407h175l-14 -407h-146zM52 88q0 42 28 70t71 28t72 -28.5t29 -69.5t-29 -69.5t-72 -28.5t-71 28t-28 70z" />
    <glyph glyph-name="quotedbl" unicode="&#x22;" horiz-adv-x="496" 
d="M66 339v309h136v-309h-136zM294 339v309h136v-309h-136z" />
    <glyph glyph-name="numbersign" unicode="#" 
d="M58 0l43 182h-70l27 110h70l24 102h-70l26 110h70l35 144h116l-35 -144h83l34 144h114l-34 -144h68l-26 -110h-68l-24 -102h68l-27 -110h-68l-43 -182h-114l43 182h-83l-43 -182h-116zM244 292h82l25 102h-83z" />
    <glyph glyph-name="dollar" unicode="$" 
d="M235 -104v98q-128 15 -198 75l54 139q70 -53 185 -53q10 0 21 1.5t25 5.5t23 12.5t9 20.5q0 24 -41 36q-123 38 -169 66q-96 58 -96 166q0 79 51 128.5t136 61.5v98h131v-100q88 -11 169 -54l-58 -143q-25 13 -77 25.5t-96 12.5q-58 0 -58 -30q0 -16 13.5 -24t44.5 -17
q41 -12 71 -22.5t66 -29.5t58.5 -40.5t38 -54.5t15.5 -72q0 -79 -52.5 -132t-134.5 -70v-104h-131z" />
    <glyph glyph-name="percent" unicode="%" horiz-adv-x="966" 
d="M221 658q76 0 123.5 -55.5t47.5 -144.5t-47.5 -144.5t-123.5 -55.5t-123.5 55.5t-47.5 144.5t47.5 144.5t123.5 55.5zM221 542q-48 0 -48 -84t48 -84t48 84t-48 84zM745 389q76 0 123.5 -55.5t47.5 -144.5t-47.5 -144.5t-123.5 -55.5t-123.5 55.5t-47.5 144.5t47.5 144.5
t123.5 55.5zM745 273q-48 0 -48 -84t48 -84t48 84t-48 84zM256 39l394 654l79 -45l-394 -654z" />
    <glyph glyph-name="ampersand" unicode="&#x26;" horiz-adv-x="646" 
d="M33 197q0 49 22.5 96.5t65.5 71.5q-36 58 -36 113q0 77 60.5 129.5t141.5 52.5q61 0 115.5 -34t90.5 -105l-126 -91q-16 40 -38.5 60t-41.5 20q-13 0 -21 -8t-8 -23q0 -36 66 -97l125 -115q5 7 5 40h151q0 -84 -32 -145l69 -61l-108 -113l-70 60q-75 -58 -189 -58
q-100 0 -171 53t-71 154zM347 150l-134 119q-18 -14 -18 -47q0 -36 26.5 -62t69.5 -26q33 0 56 16z" />
    <glyph glyph-name="quotesingle" unicode="'" horiz-adv-x="269" 
d="M66 339v309h136v-309h-136z" />
    <glyph glyph-name="parenleft" unicode="(" horiz-adv-x="408" 
d="M217 285q0 -191 113 -313l-85 -97q-31 22 -61 55t-61.5 83t-51 121t-19.5 151t19.5 151t51 121t61.5 83t61 55l85 -97q-113 -122 -113 -313z" />
    <glyph glyph-name="parenright" unicode=")" horiz-adv-x="408" 
d="M191 285q0 191 -113 313l85 97q31 -22 61 -55t61.5 -83t51 -121t19.5 -151t-19.5 -151t-51 -121t-61.5 -83t-61 -55l-85 97q113 122 113 313z" />
    <glyph glyph-name="asterisk" unicode="*" horiz-adv-x="430" 
d="M269 654l-7 -103l86 56l53 -91l-93 -46l92 -46l-53 -92l-86 57l6 -102h-106l6 102l-85 -55l-53 91l92 45l-91 47l53 92l85 -58l-5 103h106z" />
    <glyph glyph-name="plus" unicode="+" 
d="M216 61v161h-164v144h164v161h158v-161h164v-144h-164v-161h-158z" />
    <glyph glyph-name="comma" unicode="," horiz-adv-x="337" 
d="M42 -137l68 308h155l-116 -308h-107z" />
    <glyph glyph-name="hyphen" unicode="-" horiz-adv-x="516" 
d="M30 185v139h456v-139h-456z" />
    <glyph glyph-name="period" unicode="." horiz-adv-x="337" 
d="M68 88q0 42 28 70t71 28t72 -28.5t29 -69.5t-29 -69.5t-72 -28.5t-71 28t-28 70z" />
    <glyph glyph-name="slash" unicode="/" horiz-adv-x="574" 
d="M6 -19l428 712h163l-428 -712h-163z" />
    <glyph glyph-name="zero" unicode="0" 
d="M295 497q-87 0 -87 -173t87 -173t87 173t-87 173zM295 -10q-121 0 -196 93t-75 241t75 241t196 93t196 -93t75 -241t-75 -241t-196 -93z" />
    <glyph glyph-name="one" unicode="1" 
d="M40 0v159h182v259l-118 -68l-78 127l214 171h164v-489h158v-159h-522z" />
    <glyph glyph-name="two" unicode="2" 
d="M35 0v112q130 83 213 174.5t83 149.5q0 56 -64 56q-69 0 -138 -54l-85 120q54 55 121 77.5t118 22.5q96 0 166 -50t70 -152q0 -157 -179 -297h199v-159h-504z" />
    <glyph glyph-name="three" unicode="3" 
d="M23 61l58 121q59 -42 160 -42q52 0 85.5 19.5t33.5 60.5q0 28 -26.5 46.5t-76.5 18.5q-46 0 -90 -21l-46 88l177 137h-232v159h438v-153l-127 -110q73 -8 119.5 -55.5t46.5 -121.5t-42 -124.5t-103.5 -71.5t-136.5 -21q-151 0 -238 70z" />
    <glyph glyph-name="four" unicode="4" 
d="M333 0v114h-299v118l198 441l148 -59l-148 -341h101v127h167v-127h70v-159h-70v-114h-167z" />
    <glyph glyph-name="five" unicode="5" 
d="M40 58l61 123q57 -44 145 -44q56 0 83.5 21t27.5 54t-34 50t-90 17q-63 0 -109 -26l-57 58v337h430v-159h-248v-72q15 3 48 3q96 0 169.5 -51t73.5 -145q0 -111 -81.5 -172.5t-204.5 -61.5q-127 0 -214 68z" />
    <glyph glyph-name="six" unicode="6" 
d="M37 225q0 43 16 94t42 88l200 285l141 -84l-102 -155h5q90 0 154 -63.5t64 -153.5q0 -112 -72.5 -181t-188.5 -69q-115 0 -187 66.5t-72 172.5zM224 222q0 -35 18.5 -56t53.5 -21q36 0 55 21t19 56q0 33 -19 54.5t-55 21.5q-35 0 -53.5 -21.5t-18.5 -54.5z" />
    <glyph glyph-name="seven" unicode="7" 
d="M108 0l245 489h-318v159h529v-106l-257 -542h-199z" />
    <glyph glyph-name="eight" unicode="8" 
d="M295 658q106 0 166.5 -52t60.5 -132q0 -99 -71 -141q50 -17 75 -59.5t25 -92.5q0 -89 -67 -141t-189 -52t-189 52t-67 141q0 50 25 92.5t75 59.5q-71 42 -71 141q0 80 60.5 132t166.5 52zM295 274q-33 0 -50 -18t-17 -47t17 -47.5t50 -18.5t50 18.5t17 47.5t-17 47
t-50 18zM295 505q-32 0 -48.5 -18t-16.5 -46t16.5 -45.5t48.5 -17.5t48.5 17.5t16.5 45.5t-16.5 46t-48.5 18z" />
    <glyph glyph-name="nine" unicode="9" 
d="M557 419q0 -43 -16 -94t-42 -88l-186 -268l-141 84l88 138h-5q-90 0 -154 63.5t-64 153.5q0 112 72.5 181t188.5 69q115 0 187 -66.5t72 -172.5zM370 422q0 35 -18.5 56t-53.5 21q-36 0 -55 -21t-19 -56q0 -33 19 -54.5t55 -21.5q35 0 53.5 21.5t18.5 54.5z" />
    <glyph glyph-name="colon" unicode=":" horiz-adv-x="337" 
d="M68 88q0 42 28 70t71 28t72 -28.5t29 -69.5t-29 -69.5t-72 -28.5t-71 28t-28 70zM68 413q0 41 28 69.5t71 28.5t72 -28.5t29 -69.5t-29 -69.5t-72 -28.5t-71 28.5t-28 69.5z" />
    <glyph glyph-name="semicolon" unicode=";" horiz-adv-x="345" 
d="M77 413q0 41 28.5 69.5t70.5 28.5q43 0 72 -28.5t29 -69.5t-29 -69.5t-72 -28.5q-42 0 -70.5 28.5t-28.5 69.5zM42 -137l68 308h155l-116 -308h-107z" />
    <glyph glyph-name="less" unicode="&#x3c;" 
d="M546 206v-168l-502 206v100l502 208v-168l-284 -90z" />
    <glyph glyph-name="equal" unicode="=" 
d="M52 103v144h486v-144h-486zM52 341v144h486v-144h-486z" />
    <glyph glyph-name="greater" unicode="&#x3e;" 
d="M44 38v168l284 88l-284 90v168l502 -208v-100z" />
    <glyph glyph-name="question" unicode="?" horiz-adv-x="473" 
d="M148 232l-18 131q141 0 141 71q0 25 -17 40t-41 15q-34 0 -54 -34l-146 66q24 66 78.5 101.5t128.5 35.5q104 0 163.5 -55.5t59.5 -141.5q0 -65 -41.5 -114t-107.5 -60l-13 -55h-133zM116 86q0 42 28 70t71 28t72 -28.5t29 -69.5t-29 -69.5t-72 -28.5t-71 28t-28 70z" />
    <glyph glyph-name="at" unicode="@" horiz-adv-x="925" 
d="M63 245q0 163 120.5 278t290.5 115q161 0 274.5 -101.5t113.5 -245.5q0 -115 -46.5 -182t-125.5 -67q-77 0 -110 61q-48 -69 -142 -69q-78 0 -133 61.5t-55 148.5q0 86 55 147t133 61q70 0 112 -42v33h115v-242q0 -52 32 -52q26 0 42.5 38.5t16.5 103.5q0 113 -72.5 178
t-209.5 65q-121 0 -205.5 -84.5t-84.5 -204.5q0 -125 79.5 -203.5t199.5 -78.5q80 0 159 36l41 -86q-86 -50 -204 -50q-174 0 -285 107t-111 275zM372 244q0 -45 24.5 -74.5t68.5 -29.5q38 0 61.5 29t23.5 75q0 45 -23 73.5t-62 28.5q-44 0 -68.5 -29t-24.5 -73z" />
    <glyph glyph-name="A" unicode="A" horiz-adv-x="736" 
d="M283 230h170l-85 242zM232 84l-30 -84h-194l262 648h196l262 -648h-194l-30 84h-272z" />
    <glyph glyph-name="B" unicode="B" horiz-adv-x="675" 
d="M55 0v648h313q44 0 80.5 -8t69 -27.5t51 -56t18.5 -87.5q0 -31 -16 -63.5t-41 -49.5q50 -16 81 -57t31 -104q0 -52 -21 -90.5t-58 -61t-82.5 -33t-99.5 -10.5h-326zM245 253v-92h131q68 0 68 46t-68 46h-131zM409 439q0 48 -58 48h-106v-92h106q58 0 58 44z" />
    <glyph glyph-name="C" unicode="C" horiz-adv-x="658" 
d="M524 232l121 -133q-100 -111 -267 -111q-152 0 -247.5 96.5t-95.5 239.5q0 142 95.5 238t247.5 96q153 0 247 -94l-125 -129q-50 51 -114 51t-108.5 -46t-44.5 -116q0 -72 43 -118t110 -46q84 0 138 72z" />
    <glyph glyph-name="D" unicode="D" horiz-adv-x="713" 
d="M245 161h73q72 0 115.5 46t43.5 117t-43.5 117t-115.5 46h-73v-326zM55 0v648h270q159 0 256 -93.5t97 -230.5t-97 -230.5t-256 -93.5h-270z" />
    <glyph glyph-name="E" unicode="E" horiz-adv-x="603" 
d="M55 0v648h515v-161h-325v-79h312v-159h-312v-88h337v-161h-527z" />
    <glyph glyph-name="F" unicode="F" horiz-adv-x="560" 
d="M55 0v648h500v-161h-310v-79h271v-159h-271v-249h-190z" />
    <glyph glyph-name="G" unicode="G" horiz-adv-x="715" 
d="M35 324q0 142 95.5 238t247.5 96q153 0 247 -94l-125 -129q-50 51 -114 51t-108.5 -46t-44.5 -116q0 -72 43 -118t110 -46q56 0 110 37v59h-89v112h253v-251q-41 -60 -115.5 -94.5t-162.5 -34.5q-153 0 -250 96.5t-97 239.5z" />
    <glyph glyph-name="H" unicode="H" horiz-adv-x="685" 
d="M55 0v648h190v-242h195v242h190v-648h-190v245h-195v-245h-190z" />
    <glyph glyph-name="I" unicode="I" horiz-adv-x="300" 
d="M55 0v648h190v-648h-190z" />
    <glyph glyph-name="J" unicode="J" horiz-adv-x="624" 
d="M22 135l126 105q22 -46 52.5 -63t76.5 -17q50 0 77 29t27 82v377h190v-371q0 -140 -76 -214.5t-219 -74.5q-81 0 -149 35t-105 112z" />
    <glyph glyph-name="K" unicode="K" horiz-adv-x="690" 
d="M55 0v648h190v-304l185 304h219l-200 -282l233 -366h-222l-123 217l-92 -121v-96h-190z" />
    <glyph glyph-name="L" unicode="L" horiz-adv-x="615" 
d="M55 0v648h190v-487h345v-161h-535z" />
    <glyph glyph-name="M" unicode="M" horiz-adv-x="798" 
d="M55 0v648h162l182 -262l182 262h162v-648h-190v322l-154 -216l-154 214v-320h-190z" />
    <glyph glyph-name="N" unicode="N" horiz-adv-x="700" 
d="M55 0v648h165l235 -327v327h190v-648h-165l-235 322v-322h-190z" />
    <glyph glyph-name="O" unicode="O" horiz-adv-x="765" 
d="M233 324q0 -72 42 -118t107 -46q66 0 108 46t42 118q0 71 -42 116.5t-108 45.5q-62 0 -105.5 -46t-43.5 -116zM35 324q0 141 97 237.5t250 96.5t250.5 -96.5t97.5 -237.5q0 -143 -97 -239.5t-251 -96.5q-153 0 -250 96.5t-97 239.5z" />
    <glyph glyph-name="P" unicode="P" horiz-adv-x="676" 
d="M55 0v648h286q144 0 222.5 -72.5t78.5 -183.5t-79 -183.5t-223 -72.5h-95v-136h-190zM245 297h100q42 0 69 27.5t27 67.5t-27 67.5t-68 27.5h-101v-190z" />
    <glyph glyph-name="Q" unicode="Q" horiz-adv-x="765" 
d="M616 -13l-48 48q-81 -47 -186 -47q-153 0 -250 96.5t-97 239.5q0 141 97 237.5t250 96.5t250.5 -96.5t97.5 -237.5q0 -119 -70 -208l42 -42zM233 324q0 -72 42 -118t107 -46q28 0 52 9l-48 49l87 86l47 -48q12 30 12 68q0 71 -42 116.5t-108 45.5q-62 0 -105.5 -46
t-43.5 -116z" />
    <glyph glyph-name="R" unicode="R" horiz-adv-x="677" 
d="M55 0v648h286q144 0 222.5 -72.5t78.5 -183.5q0 -58 -26 -111.5t-76 -87.5l121 -193h-217l-74 137q-40 -1 -125 -1v-136h-190zM245 297h98q43 0 70.5 27.5t27.5 67.5t-27.5 67.5t-69.5 27.5h-99v-190z" />
    <glyph glyph-name="S" unicode="S" horiz-adv-x="619" 
d="M31 66l62 148q33 -19 55 -29t65 -20t91 -10q10 0 21 1.5t25 5.5t23 12.5t9 20.5q0 6 -2 11.5t-7 9.5t-9.5 7t-13.5 5.5t-14 4t-16.5 4t-15.5 3.5q-43 10 -75.5 20t-68 28t-59 40.5t-38.5 57t-15 76.5q0 96 74 146t182 50q139 0 251 -66l-64 -147q-28 19 -83.5 33
t-103.5 14q-58 0 -58 -30q0 -27 58 -41q29 -6 46.5 -10.5t50 -14.5t53.5 -20.5t47.5 -28.5t41.5 -38.5t26 -50t11 -63.5q0 -70 -42 -118.5t-102.5 -68.5t-131.5 -20q-63 0 -117 11.5t-80.5 24t-50 27t-25.5 15.5z" />
    <glyph glyph-name="T" unicode="T" horiz-adv-x="636" 
d="M223 0v487h-203v161h596v-161h-203v-487h-190z" />
    <glyph glyph-name="U" unicode="U" horiz-adv-x="684" 
d="M342 160q44 0 71.5 26.5t27.5 81.5v380h190v-391q0 -129 -80.5 -199t-208.5 -70t-208.5 70t-80.5 199v391h190v-380q0 -55 27.5 -81.5t71.5 -26.5z" />
    <glyph glyph-name="V" unicode="V" horiz-adv-x="665" 
d="M228 0l-220 648h196l128 -441l135 441h190l-220 -648h-209z" />
    <glyph glyph-name="W" unicode="W" horiz-adv-x="949" 
d="M172 0l-164 648h195l80 -413l97 413h189l96 -413l89 413h187l-164 -648h-200l-103 411l-103 -411h-199z" />
    <glyph glyph-name="X" unicode="X" horiz-adv-x="669" 
d="M333 452l113 196h206l-205 -325l214 -323h-218l-110 195l-115 -195h-209l214 323l-205 325h215z" />
    <glyph glyph-name="Y" unicode="Y" horiz-adv-x="661" 
d="M237 0v281l-229 367h217l107 -201l104 201h217l-226 -367v-281h-190z" />
    <glyph glyph-name="Z" unicode="Z" horiz-adv-x="602" 
d="M25 0v136l287 351h-273v161h529v-138l-283 -349h292v-161h-552z" />
    <glyph glyph-name="bracketleft" unicode="[" horiz-adv-x="371" 
d="M52 -99v793h272v-107h-101v-579h101v-107h-272z" />
    <glyph glyph-name="backslash" unicode="\" horiz-adv-x="653" 
d="M489 -19l-495 712h161l497 -712h-163z" />
    <glyph glyph-name="bracketright" unicode="]" horiz-adv-x="371" 
d="M319 694v-793h-272v107h101v579h-101v107h272z" />
    <glyph glyph-name="asciicircum" unicode="^" horiz-adv-x="605" 
d="M47 281l203 367h105l201 -367h-162l-92 188l-93 -188h-162z" />
    <glyph glyph-name="underscore" unicode="_" horiz-adv-x="502" 
d="M-3 -176v87h508v-87h-508z" />
    <glyph glyph-name="grave" unicode="`" horiz-adv-x="450" 
d="M248 570l-145 179h174l105 -179h-134z" />
    <glyph glyph-name="a" unicode="a" horiz-adv-x="600" 
d="M388 454v57h172v-511h-172v57q-17 -36 -57 -51.5t-79 -15.5q-104 0 -163 75t-59 190q0 116 59 191t163 75q39 0 79 -15.5t57 -51.5zM215 255q0 -46 23 -75.5t59 -29.5t59 29.5t23 75.5t-23 76t-59 30t-59 -30t-23 -76z" />
    <glyph glyph-name="b" unicode="b" horiz-adv-x="600" 
d="M40 0v658h182v-190q41 53 120 53q106 0 167 -75.5t61 -190.5t-59 -190t-163 -75q-39 0 -79 15.5t-57 51.5v-57h-172zM222 255q0 -46 23 -75.5t59 -29.5t59 29.5t23 75.5t-23 76t-59 30t-59 -30t-23 -76z" />
    <glyph glyph-name="c" unicode="c" horiz-adv-x="503" 
d="M401 187l91 -134q-75 -63 -186 -63q-117 0 -196.5 77t-79.5 188q0 112 79.5 189t196.5 77q101 0 181 -64l-105 -126q-32 30 -71 30q-44 0 -70.5 -30t-26.5 -76q0 -47 27 -76t74 -29q49 0 86 37z" />
    <glyph glyph-name="d" unicode="d" horiz-adv-x="600" 
d="M560 658v-658h-172v57q-17 -36 -57 -51.5t-79 -15.5q-104 0 -163 75t-59 190t61 190.5t167 75.5q79 0 120 -53v190h182zM215 255q0 -46 23 -75.5t59 -29.5t59 29.5t23 75.5t-23 76t-59 30t-59 -30t-23 -76z" />
    <glyph glyph-name="e" unicode="e" horiz-adv-x="582" 
d="M500 38q-78 -48 -183 -48q-121 0 -204 71.5t-83 193.5q0 112 76.5 189t189.5 77q108 0 182 -77.5t74 -188.5l-4 -59h-339q21 -66 109 -66q66 0 121 31zM296 378q-34 0 -59 -22t-33 -57h182q-4 35 -29.5 57t-60.5 22z" />
    <glyph glyph-name="f" unicode="f" horiz-adv-x="354" 
d="M70 507v32q0 83 43.5 129t118.5 46q85 0 143 -29l-49 -133q-21 8 -40 8q-34 0 -34 -42v-11h100v-144h-100v-363h-182v363h-77v144h77z" />
    <glyph glyph-name="g" unicode="g" horiz-adv-x="595" 
d="M560 511v-372q0 -58 -14 -107t-45 -90.5t-87.5 -65t-133.5 -23.5q-144 0 -224 54l65 114q51 -33 139 -33q59 0 88.5 28t29.5 65q-19 -26 -52.5 -38.5t-67.5 -12.5q-105 0 -166.5 70t-61.5 175q0 106 61.5 176t166.5 70q37 0 74.5 -16t55.5 -51v57h172zM379 275
q0 39 -23 64t-59 25t-59 -25t-23 -64t23 -63.5t59 -24.5t59 24.5t23 63.5z" />
    <glyph glyph-name="h" unicode="h" horiz-adv-x="580" 
d="M222 658v-193q52 56 144 56q47 0 81.5 -15.5t53 -37.5t29 -56t13 -62t2.5 -65v-285h-182v262q0 89 -57 89q-39 0 -61.5 -30.5t-22.5 -79.5v-241h-182v658h182z" />
    <glyph glyph-name="i" unicode="i" horiz-adv-x="262" 
d="M40 0v511h182v-511h-182zM27 653q0 43 30.5 73.5t72.5 30.5q43 0 74 -30.5t31 -73.5q0 -42 -31 -72.5t-74 -30.5q-42 0 -72.5 30.5t-30.5 72.5z" />
    <glyph glyph-name="j" unicode="j" horiz-adv-x="262" 
d="M21 -194l-66 123q85 43 85 149v433h182v-404q0 -115 -49.5 -185.5t-151.5 -115.5zM27 653q0 43 30.5 73.5t72.5 30.5q43 0 74 -30.5t31 -73.5q0 -42 -31 -72.5t-74 -30.5q-42 0 -72.5 30.5t-30.5 72.5z" />
    <glyph glyph-name="k" unicode="k" horiz-adv-x="598" 
d="M40 0v658h182v-303l124 156h217l-194 -213l223 -298h-216l-124 178l-30 -36v-142h-182z" />
    <glyph glyph-name="l" unicode="l" horiz-adv-x="262" 
d="M40 0v658h182v-658h-182z" />
    <glyph glyph-name="m" unicode="m" horiz-adv-x="893" 
d="M516 442q27 42 72 60.5t91 18.5q47 0 81.5 -15.5t53 -37.5t29 -56t13 -62t2.5 -65v-285h-182v264q0 89 -57 89q-39 0 -59 -31t-20 -81v-241h-182v264q0 89 -57 89q-39 0 -59 -31t-20 -81v-241h-182v511h172v-56q57 66 154 66q109 0 150 -79z" />
    <glyph glyph-name="n" unicode="n" horiz-adv-x="580" 
d="M40 0v511h172v-56q57 66 154 66q47 0 81.5 -15.5t53 -37.5t29 -56t13 -62t2.5 -65v-285h-182v262q0 89 -57 89q-39 0 -61.5 -30.5t-22.5 -79.5v-241h-182z" />
    <glyph glyph-name="o" unicode="o" horiz-adv-x="612" 
d="M30 255q0 112 79.5 189t196.5 77t196.5 -77t79.5 -189q0 -111 -79.5 -188t-196.5 -77t-196.5 77t-79.5 188zM214 255q0 -46 25.5 -75.5t66.5 -29.5t66.5 29.5t25.5 75.5t-26 76t-66 30t-66 -30t-26 -76z" />
    <glyph glyph-name="p" unicode="p" horiz-adv-x="600" 
d="M40 -147v658h172v-57q17 36 57 51.5t79 15.5q104 0 163 -75t59 -190t-61 -190.5t-167 -75.5q-79 0 -120 53v-190h-182zM220 255q0 -46 23 -75.5t59 -29.5t59 29.5t23 75.5t-23 76t-59 30t-59 -30t-23 -76z" />
    <glyph glyph-name="q" unicode="q" horiz-adv-x="600" 
d="M560 511v-658h-182v190q-41 -53 -120 -53q-106 0 -167 75.5t-61 190.5t59 190t163 75q39 0 79 -15.5t57 -51.5v57h172zM215 255q0 -46 23 -75.5t59 -29.5t59 29.5t23 75.5t-23 76t-59 30t-59 -30t-23 -76z" />
    <glyph glyph-name="r" unicode="r" horiz-adv-x="404" 
d="M40 0v511h177v-91q4 28 46.5 64.5t120.5 36.5v-198q-94 0 -128 -36.5t-34 -114.5v-172h-182z" />
    <glyph glyph-name="s" unicode="s" horiz-adv-x="482" 
d="M16 51l58 128q33 -22 66.5 -32.5t88.5 -10.5q4 0 14 1.5t23 7t13 14.5q0 5 -3 8t-10 6t-12 4.5t-17.5 4l-17.5 3.5q-92 22 -142.5 61t-50.5 105q0 80 61.5 125t148.5 45q117 0 207 -48l-54 -122q-77 30 -147 30q-32 0 -32 -16q0 -12 26 -21t63 -19t74.5 -25.5t63.5 -50
t26 -83.5q0 -48 -24 -84.5t-62 -55.5t-75.5 -27.5t-73.5 -8.5q-142 0 -212 61z" />
    <glyph glyph-name="t" unicode="t" horiz-adv-x="395" 
d="M82 165v202h-75v144h75v92l182 45v-137h113v-144h-113v-188q0 -32 28 -32q23 0 46 16l49 -133q-57 -40 -143 -40q-75 0 -118.5 46t-43.5 129z" />
    <glyph glyph-name="u" unicode="u" horiz-adv-x="580" 
d="M540 511v-511h-172v56q-31 -40 -66 -53t-81 -13q-56 0 -94 18.5t-57 53.5t-27 74t-8 90v285h182v-262q0 -46 15.5 -67.5t50.5 -21.5q75 0 75 110v241h182z" />
    <glyph glyph-name="v" unicode="v" horiz-adv-x="560" 
d="M188 0l-182 511h180l94 -332l94 332h180l-182 -511h-184z" />
    <glyph glyph-name="w" unicode="w" horiz-adv-x="754" 
d="M287 511h180l43 -298l61 298h177l-154 -511h-166l-51 298l-51 -298h-166l-154 511h177l61 -298z" />
    <glyph glyph-name="x" unicode="x" horiz-adv-x="556" 
d="M278 366l70 145h196l-151 -249l151 -262h-198l-68 155l-68 -155h-198l151 262l-151 249h196z" />
    <glyph glyph-name="y" unicode="y" horiz-adv-x="560" 
d="M100 -147v161q69 0 89 35l15 28l-198 434h180l99 -262l89 262h180l-214 -508q-21 -50 -51 -82.5t-66 -46t-62.5 -17.5t-60.5 -4z" />
    <glyph glyph-name="z" unicode="z" horiz-adv-x="461" 
d="M20 0v127l182 225h-174v159h406v-126l-188 -226h195v-159h-421z" />
    <glyph glyph-name="braceleft" unicode="{" horiz-adv-x="481" 
d="M56 357h32q50 0 50 81v44q0 109 42 163.5t135 54.5h119v-118h-41q-42 0 -58 -18t-16 -82v-45q0 -131 -120 -142q120 -11 120 -142v-45q0 -64 16 -82t58 -18h41v-118h-119q-93 0 -135 54.5t-42 163.5v44q0 81 -50 81h-32v124z" />
    <glyph glyph-name="bar" unicode="|" horiz-adv-x="283" 
d="M75 -189v927h131v-927h-131z" />
    <glyph glyph-name="braceright" unicode="}" horiz-adv-x="481" 
d="M393 357h32v-124h-32q-50 0 -50 -81v-44q0 -109 -42 -163.5t-135 -54.5h-119v118h41q42 0 58 18t16 82v45q0 131 120 142q-120 11 -120 142v45q0 64 -16 82t-58 18h-41v118h119q93 0 135 -54.5t42 -163.5v-44q0 -81 50 -81z" />
    <glyph glyph-name="asciitilde" unicode="~" horiz-adv-x="564" 
d="M182 206h-139q0 181 138 181q41 0 90 -19.5t70 -19.5q41 0 41 39h139q0 -180 -138 -180q-41 0 -90 19t-70 19q-41 0 -41 -39z" />
    <glyph glyph-name="nbspace" unicode="&#xa0;" horiz-adv-x="648" 
 />
    <glyph glyph-name="exclamdown" unicode="&#xa1;" horiz-adv-x="304" 
d="M223 270l15 -441h-175l14 441h146zM250 423q0 -41 -28 -69.5t-71 -28.5t-72 28.5t-29 69.5t29 69.5t72 28.5t71 -28.5t28 -69.5z" />
    <glyph glyph-name="cent" unicode="&#xa2;" 
d="M282 -37v98q-93 20 -152 92t-59 166q0 95 59 166.5t152 92.5v91h131v-91q61 -15 115 -57l-102 -122q-31 20 -71 20q-41 0 -70.5 -28.5t-29.5 -71.5q0 -44 29.5 -71.5t76.5 -27.5q45 0 84 27l88 -130q-50 -42 -120 -57v-97h-131z" />
    <glyph glyph-name="sterling" unicode="&#xa3;" 
d="M76 0v145h61v118h-58v115h58v50q0 115 56.5 172.5t148.5 57.5q102 0 184 -67l-89 -121q-33 28 -67 28q-49 0 -49 -63v-57h126v-115h-126v-104h213v-159h-458z" />
    <glyph glyph-name="currency" unicode="&#xa4;" 
d="M89 280q0 64 39 114l-78 80l51 51l81 -83q53 32 113 32t112 -31l82 82l51 -51l-79 -79q40 -51 40 -115q0 -63 -40 -116l79 -78l-51 -51l-83 82q-50 -31 -111 -31q-62 0 -112 31l-82 -82l-51 51l79 79q-40 51 -40 115zM295 205q33 0 53.5 21.5t20.5 53.5t-20.5 53.5
t-53.5 21.5t-53.5 -21.5t-20.5 -53.5t20.5 -53.5t53.5 -21.5z" />
    <glyph glyph-name="yen" unicode="&#xa5;" 
d="M387 324h110v-79h-112v-33h113v-79h-112v-133h-182v133h-107v79h107v33h-107v79h106l-187 324h203l76 -185l76 185h203z" />
    <glyph glyph-name="brokenbar" unicode="&#xa6;" horiz-adv-x="253" 
d="M61 384v420h131v-420h-131zM61 -190v481h131v-481h-131z" />
    <glyph glyph-name="section" unicode="&#xa7;" horiz-adv-x="557" 
d="M48 57l55 117q79 -51 183 -51q32 0 32 12q0 6 -26 13l-133 40q-126 38 -126 142q0 76 47 118q-15 24 -15 54q0 79 61.5 117.5t155.5 38.5q100 0 209 -57l-58 -124q-82 47 -184 47q-32 0 -32 -12q0 -5 34 -15l119 -36q150 -45 150 -176q0 -62 -48 -97q18 -21 18 -55
q0 -53 -31.5 -89.5t-77.5 -51.5t-103 -15q-143 0 -230 80zM361 291q0 29 -46 45l-96 32q-15 5 -26 5q-15 0 -15 -22q0 -5 2 -11q5 -16 17 -23t43 -17l49 -15q48 -16 56 -16q16 0 16 22z" />
    <glyph glyph-name="dieresis" unicode="&#xa8;" horiz-adv-x="450" 
d="M34 648q0 33 23.5 56t56.5 23t56.5 -23t23.5 -56t-23.5 -56t-56.5 -23t-56.5 23t-23.5 56zM255 648q0 33 23.5 56t56.5 23t56.5 -23t23.5 -56t-23.5 -56t-56.5 -23t-56.5 23t-23.5 56z" />
    <glyph glyph-name="copyright" unicode="&#xa9;" horiz-adv-x="746" 
d="M177 323q0 84 59.5 143.5t143.5 59.5q85 0 148 -66l-43 -45q-43 45 -104 45q-56 0 -95.5 -40t-39.5 -97q0 -58 39 -98.5t95 -40.5q34 0 60.5 10.5t59.5 46.5l41 -43q-64 -78 -161 -78q-84 0 -143.5 59.5t-59.5 143.5zM40 323q0 139 97.5 237t234.5 98q138 0 236 -98
t98 -237t-98 -237t-236 -98q-137 0 -234.5 98t-97.5 237zM113 323q0 -109 76 -186.5t183 -77.5q108 0 184.5 77.5t76.5 186.5q0 110 -76.5 187.5t-184.5 77.5q-107 0 -183 -77.5t-76 -187.5z" />
    <glyph glyph-name="ordfeminine" unicode="&#xaa;" horiz-adv-x="379" 
d="M24 416q0 48 35 78t75.5 39t84.5 9q-10 32 -49 32q-17 0 -38 -4.5t-33 -9.5l-12 -4l-35 81q6 4 16.5 10t46.5 16.5t76 10.5q160 0 160 -167v-176h-122v41q-38 -49 -106 -49q-48 0 -73.5 27t-25.5 66zM137 433q0 -19 26 -19q29 0 46.5 17t19.5 41q-92 0 -92 -39z" />
    <glyph glyph-name="guillemotleft" unicode="&#xab;" horiz-adv-x="575" 
d="M22 278l182 180l77 -68l-127 -145l127 -145l-77 -68l-182 182v64zM291 278l182 180l77 -68l-127 -145l127 -145l-77 -68l-182 182v64z" />
    <glyph glyph-name="logicalnot" unicode="&#xac;" 
d="M392 107v164h-340v144h486l1 -308h-147z" />
    <glyph glyph-name="registered" unicode="&#xae;" horiz-adv-x="746" 
d="M233 124v398h132q75 0 124 -47t49 -116q0 -88 -67 -136l54 -99h-79l-34 74q-15 -3 -38 -3h-74v-71h-67zM300 259h74q45 0 70 28t25 72q0 40 -26 69.5t-69 29.5h-74v-199zM40 323q0 139 97.5 237t234.5 98q138 0 236 -98t98 -237t-98 -237t-236 -98q-137 0 -234.5 98
t-97.5 237zM113 323q0 -109 76 -186.5t183 -77.5q108 0 184.5 77.5t76.5 186.5q0 110 -76.5 187.5t-184.5 77.5q-107 0 -183 -77.5t-76 -187.5z" />
    <glyph glyph-name="macron" unicode="&#xaf;" horiz-adv-x="450" 
d="M92 579v105h266v-105h-266z" />
    <glyph glyph-name="degree" unicode="&#xb0;" horiz-adv-x="409" 
d="M12 474q0 79 55 135.5t135 56.5q81 0 136.5 -56.5t55.5 -135.5q0 -78 -55.5 -134t-136.5 -56q-80 0 -135 56t-55 134zM127 474q0 -33 22 -56.5t53 -23.5q32 0 54 23.5t22 56.5q0 34 -21.5 57.5t-54.5 23.5q-31 0 -53 -23.5t-22 -57.5z" />
    <glyph glyph-name="plusminus" unicode="&#xb1;" 
d="M52 0v144h486v-144h-486zM52 332v144h164v129h158v-129h164v-144h-164v-129h-158v129h-164z" />
    <glyph glyph-name="twosuperior" unicode="&#xb2;" horiz-adv-x="429" 
d="M34 291v80q86 58 140.5 121t54.5 104q0 40 -46 40q-39 0 -82 -39l-63 89q40 41 88.5 57.5t84.5 16.5q68 0 118 -35.5t50 -108.5q0 -113 -120 -202h134v-123h-359z" />
    <glyph glyph-name="threesuperior" unicode="&#xb3;" horiz-adv-x="472" 
d="M52 335l61 96q32 -28 90 -28q30 0 50.5 11.5t20.5 35.5q0 18 -17 30.5t-50 12.5q-22 0 -52 -14l-44 75l110 77h-139v123h314v-112l-88 -64q49 -11 82.5 -45.5t33.5 -87.5q0 -78 -57 -119.5t-144 -41.5q-108 0 -171 51z" />
    <glyph glyph-name="acute" unicode="&#xb4;" horiz-adv-x="450" 
d="M66 570l105 179h175l-145 -179h-135z" />
    <glyph glyph-name="mu" unicode="&#xb5;" horiz-adv-x="642" 
d="M65 -137v648h182v-264q0 -80 66 -80q75 0 75 110v234h182v-235q0 -57 14.5 -102.5t25.5 -61t32 -38.5l-110 -123q-8 4 -20 11.5t-35 31.5t-28 48q-48 -52 -148 -52q-27 0 -54 8v-135h-182z" />
    <glyph glyph-name="paragraph" unicode="&#xb6;" horiz-adv-x="634" 
d="M259 0v257q-91 7 -150 57.5t-59 137.5q0 81 62.5 138.5t152.5 57.5h288v-648h-115v535h-64v-535h-115z" />
    <glyph glyph-name="periodcentered" unicode="&#xb7;" horiz-adv-x="229" 
d="M14 292q0 41 29.5 70.5t70.5 29.5t70.5 -29.5t29.5 -70.5t-29.5 -70.5t-70.5 -29.5t-70.5 29.5t-29.5 70.5z" />
    <glyph glyph-name="cedilla" unicode="&#xb8;" horiz-adv-x="450" 
d="M86 -193l38 64q38 -21 74 -21q22 0 34.5 10.5t12.5 26.5q0 18 -15 18q-14 0 -25 -27l-86 25l60 100h100l-21 -35h4q44 0 66 -25t22 -56q0 -41 -35.5 -76t-108.5 -35q-75 0 -120 31z" />
    <glyph glyph-name="onesuperior" unicode="&#xb9;" horiz-adv-x="412" 
d="M179 291v288l-78 -48l-56 93l168 130h106v-463h-140z" />
    <glyph glyph-name="ordmasculine" unicode="&#xba;" horiz-adv-x="403" 
d="M20 500q0 73 51.5 123.5t129.5 50.5q79 0 130.5 -50.5t51.5 -123.5q0 -74 -50.5 -125t-131.5 -51t-131 50.5t-50 125.5zM147 499q0 -25 14.5 -41.5t39.5 -16.5t39.5 16.5t14.5 41.5t-14.5 41.5t-39.5 16.5t-39.5 -16.5t-14.5 -41.5z" />
    <glyph glyph-name="guillemotright" unicode="&#xbb;" horiz-adv-x="575" 
d="M368 458l182 -180v-64l-182 -182l-77 68l127 145l-127 145zM99 458l182 -180v-64l-182 -182l-77 68l127 145l-127 145z" />
    <glyph glyph-name="onequarter" unicode="&#xbc;" horiz-adv-x="1079" 
d="M859 3v71h-223v94l140 306l120 -59l-104 -218h67v90h140v-90h39v-123h-39v-71h-140zM323 39l394 654l79 -45l-394 -654zM179 191v288l-78 -48l-56 93l168 130h106v-463h-140z" />
    <glyph glyph-name="onehalf" unicode="&#xbd;" horiz-adv-x="1127" 
d="M718 4v80q86 58 140.5 121t54.5 104q0 40 -46 40q-39 0 -82 -39l-63 89q40 41 88.5 57.5t84.5 16.5q68 0 118 -35.5t50 -108.5q0 -113 -120 -202h134v-123h-359zM323 39l394 654l79 -45l-394 -654zM179 191v288l-78 -48l-56 93l168 130h106v-463h-140z" />
    <glyph glyph-name="threequarters" unicode="&#xbe;" horiz-adv-x="1131" 
d="M912 3v71h-223v94l140 306l120 -59l-104 -218h67v90h140v-90h39v-123h-39v-71h-140zM52 235l61 96q32 -28 90 -28q30 0 50.5 11.5t20.5 35.5q0 18 -17 30.5t-50 12.5q-22 0 -52 -14l-44 75l110 77h-139v123h314v-112l-88 -64q49 -11 82.5 -45.5t33.5 -87.5
q0 -78 -57 -119.5t-144 -41.5q-108 0 -171 51zM373 39l394 654l79 -45l-394 -654z" />
    <glyph glyph-name="questiondown" unicode="&#xbf;" horiz-adv-x="473" 
d="M326 278l18 -131q-141 0 -141 -71q0 -25 17 -40t41 -15q34 0 54 34l146 -66q-24 -66 -78.5 -101.5t-128.5 -35.5q-104 0 -163.5 55.5t-59.5 141.5q0 65 41.5 114t107.5 60l13 55h133zM358 424q0 -42 -28 -70t-71 -28t-72 28.5t-29 69.5t29 69.5t72 28.5t71 -28t28 -70z
" />
    <glyph glyph-name="Agrave" unicode="&#xc0;" horiz-adv-x="736" 
d="M283 230h170l-85 242zM232 84l-30 -84h-194l262 648h196l262 -648h-194l-30 84h-272zM314 681l-145 179h174l105 -179h-134z" />
    <glyph glyph-name="Aacute" unicode="&#xc1;" horiz-adv-x="736" 
d="M283 230h170l-85 242zM232 84l-30 -84h-194l262 648h196l262 -648h-194l-30 84h-272zM292 681l105 179h175l-145 -179h-135z" />
    <glyph glyph-name="Acircumflex" unicode="&#xc2;" horiz-adv-x="736" 
d="M283 230h170l-85 242zM232 84l-30 -84h-194l262 648h196l262 -648h-194l-30 84h-272zM150 681l132 179h173l132 -179h-127l-92 98l-90 -98h-128z" />
    <glyph glyph-name="Atilde" unicode="&#xc3;" horiz-adv-x="736" 
d="M283 230h170l-85 242zM232 84l-30 -84h-194l262 648h196l262 -648h-194l-30 84h-272zM172 685q0 73 29.5 115t76.5 42q33 0 67 -14.5t58 -29t34 -14.5q22 0 29 15t7 43h90q0 -73 -29.5 -115t-76.5 -42q-33 0 -67 14.5t-58 29t-34 14.5q-22 0 -29 -15t-7 -43h-90z" />
    <glyph glyph-name="Adieresis" unicode="&#xc4;" horiz-adv-x="736" 
d="M283 230h170l-85 242zM232 84l-30 -84h-194l262 648h196l262 -648h-194l-30 84h-272zM177 758q0 33 23.5 56t56.5 23t56.5 -23t23.5 -56t-23.5 -56t-56.5 -23t-56.5 23t-23.5 56zM398 758q0 33 23.5 56t56.5 23t56.5 -23t23.5 -56t-23.5 -56t-56.5 -23t-56.5 23t-23.5 56
z" />
    <glyph glyph-name="Aring" unicode="&#xc5;" horiz-adv-x="736" 
d="M283 230h170l-85 242zM232 84l-30 -84h-194l262 648h196l262 -648h-194l-30 84h-272zM251 782q0 49 34 83t83 34t83 -34t34 -83t-34 -83t-83 -34t-83 34t-34 83zM327 782q0 -18 12 -31t29 -13t29 13t12 31t-12 30.5t-29 12.5t-29 -12.5t-12 -30.5z" />
    <glyph glyph-name="AE" unicode="&#xc6;" horiz-adv-x="1005" 
d="M8 0l381 648h581v-161h-319v-79h304v-159h-304v-88h333v-161h-513v84h-210l-43 -84h-210zM336 230h135v261z" />
    <glyph glyph-name="Ccedilla" unicode="&#xc7;" horiz-adv-x="658" 
d="M232 -193l38 64q38 -21 74 -21q22 0 34.5 10.5t12.5 26.5q0 18 -15 18q-14 0 -25 -27l-86 25l53 90q-128 19 -205.5 111t-77.5 220q0 142 95.5 238t247.5 96q153 0 247 -94l-125 -129q-50 51 -114 51t-108.5 -46t-44.5 -116q0 -72 43 -118t110 -46q84 0 138 72l121 -133
q-86 -97 -228 -109l-13 -22h4q44 0 66 -25t22 -56q0 -41 -35.5 -76t-108.5 -35q-75 0 -120 31z" />
    <glyph glyph-name="Egrave" unicode="&#xc8;" horiz-adv-x="603" 
d="M55 0v648h515v-161h-325v-79h312v-159h-312v-88h337v-161h-527zM306 681l-145 179h174l105 -179h-134z" />
    <glyph glyph-name="Eacute" unicode="&#xc9;" horiz-adv-x="603" 
d="M55 0v648h515v-161h-325v-79h312v-159h-312v-88h337v-161h-527zM222 681l105 179h175l-145 -179h-135z" />
    <glyph glyph-name="Ecircumflex" unicode="&#xca;" horiz-adv-x="603" 
d="M55 0v648h515v-161h-325v-79h312v-159h-312v-88h337v-161h-527zM106 681l132 179h173l132 -179h-127l-92 98l-90 -98h-128z" />
    <glyph glyph-name="Edieresis" unicode="&#xcb;" horiz-adv-x="603" 
d="M55 0v648h515v-161h-325v-79h312v-159h-312v-88h337v-161h-527zM134 751q0 33 23.5 56t56.5 23t56.5 -23t23.5 -56t-23.5 -56t-56.5 -23t-56.5 23t-23.5 56zM355 751q0 33 23.5 56t56.5 23t56.5 -23t23.5 -56t-23.5 -56t-56.5 -23t-56.5 23t-23.5 56z" />
    <glyph glyph-name="Igrave" unicode="&#xcc;" horiz-adv-x="300" 
d="M55 0v648h190v-648h-190zM104 681l-145 179h174l105 -179h-134z" />
    <glyph glyph-name="Iacute" unicode="&#xcd;" horiz-adv-x="300" 
d="M55 0v648h190v-648h-190zM60 681l105 179h175l-145 -179h-135z" />
    <glyph glyph-name="Icircumflex" unicode="&#xce;" horiz-adv-x="300" 
d="M-68 681l132 179h173l132 -179h-127l-92 98l-90 -98h-128zM55 0v648h190v-648h-190z" />
    <glyph glyph-name="Idieresis" unicode="&#xcf;" horiz-adv-x="300" 
d="M-41 758q0 33 23.5 56t56.5 23t56.5 -23t23.5 -56t-23.5 -56t-56.5 -23t-56.5 23t-23.5 56zM180 758q0 33 23.5 56t56.5 23t56.5 -23t23.5 -56t-23.5 -56t-56.5 -23t-56.5 23t-23.5 56zM55 0v648h190v-648h-190z" />
    <glyph glyph-name="Eth" unicode="&#xd0;" horiz-adv-x="713" 
d="M55 0v273h-70v114h70v261h270q159 0 256 -93.5t97 -230.5t-97.5 -230.5t-255.5 -93.5h-270zM245 161h72q72 0 116 45.5t44 117.5q0 71 -43.5 117t-115.5 46h-73v-100h92v-114h-92v-112z" />
    <glyph glyph-name="Ntilde" unicode="&#xd1;" horiz-adv-x="700" 
d="M155 678q0 73 29.5 115t76.5 42q33 0 67 -14.5t58 -29t34 -14.5q22 0 29 15t7 43h90q0 -73 -29.5 -115t-76.5 -42q-33 0 -67 14.5t-58 29t-34 14.5q-22 0 -29 -15t-7 -43h-90zM55 0v648h165l235 -327v327h190v-648h-165l-235 322v-322h-190z" />
    <glyph glyph-name="Ograve" unicode="&#xd2;" horiz-adv-x="765" 
d="M233 324q0 -72 42 -118t107 -46q66 0 108 46t42 118q0 71 -42 116.5t-108 45.5q-62 0 -105.5 -46t-43.5 -116zM35 324q0 141 97 237.5t250 96.5t250.5 -96.5t97.5 -237.5q0 -143 -97 -239.5t-251 -96.5q-153 0 -250 96.5t-97 239.5zM331 681l-145 179h174l105 -179h-134z
" />
    <glyph glyph-name="Oacute" unicode="&#xd3;" horiz-adv-x="765" 
d="M233 324q0 -72 42 -118t107 -46q66 0 108 46t42 118q0 71 -42 116.5t-108 45.5q-62 0 -105.5 -46t-43.5 -116zM35 324q0 141 97 237.5t250 96.5t250.5 -96.5t97.5 -237.5q0 -143 -97 -239.5t-251 -96.5q-153 0 -250 96.5t-97 239.5zM297 681l105 179h175l-145 -179h-135z
" />
    <glyph glyph-name="Ocircumflex" unicode="&#xd4;" horiz-adv-x="765" 
d="M233 324q0 -72 42 -118t107 -46q66 0 108 46t42 118q0 71 -42 116.5t-108 45.5q-62 0 -105.5 -46t-43.5 -116zM35 324q0 141 97 237.5t250 96.5t250.5 -96.5t97.5 -237.5q0 -143 -97 -239.5t-251 -96.5q-153 0 -250 96.5t-97 239.5zM161 681l132 179h173l132 -179h-127
l-92 98l-90 -98h-128z" />
    <glyph glyph-name="Otilde" unicode="&#xd5;" horiz-adv-x="765" 
d="M233 324q0 -72 42 -118t107 -46q66 0 108 46t42 118q0 71 -42 116.5t-108 45.5q-62 0 -105.5 -46t-43.5 -116zM35 324q0 141 97 237.5t250 96.5t250.5 -96.5t97.5 -237.5q0 -143 -97 -239.5t-251 -96.5q-153 0 -250 96.5t-97 239.5zM186 678q0 73 29.5 115t76.5 42
q33 0 67 -14.5t58 -29t34 -14.5q22 0 29 15t7 43h90q0 -73 -29.5 -115t-76.5 -42q-33 0 -67 14.5t-58 29t-34 14.5q-22 0 -29 -15t-7 -43h-90z" />
    <glyph glyph-name="Odieresis" unicode="&#xd6;" horiz-adv-x="765" 
d="M233 324q0 -72 42 -118t107 -46q66 0 108 46t42 118q0 71 -42 116.5t-108 45.5q-62 0 -105.5 -46t-43.5 -116zM35 324q0 141 97 237.5t250 96.5t250.5 -96.5t97.5 -237.5q0 -143 -97 -239.5t-251 -96.5q-153 0 -250 96.5t-97 239.5zM191 758q0 33 23.5 56t56.5 23
t56.5 -23t23.5 -56t-23.5 -56t-56.5 -23t-56.5 23t-23.5 56zM412 758q0 33 23.5 56t56.5 23t56.5 -23t23.5 -56t-23.5 -56t-56.5 -23t-56.5 23t-23.5 56z" />
    <glyph glyph-name="multiply" unicode="&#xd7;" 
d="M543 441l-146 -146l146 -146l-102 -102l-146 146l-146 -146l-102 102l146 146l-146 146l102 102l146 -146l146 146z" />
    <glyph glyph-name="Oslash" unicode="&#xd8;" horiz-adv-x="765" 
d="M35 324q0 141 97 237.5t250 96.5q75 0 142 -27l55 91l62 -37l-53 -88q67 -45 104.5 -117t37.5 -156q0 -143 -97 -239.5t-251 -96.5q-78 0 -142 26l-53 -89l-62 37l51 86q-67 45 -104 117.5t-37 158.5zM233 324q0 -80 49 -126l163 274q-30 14 -63 14q-62 0 -105.5 -46
t-43.5 -116zM532 324q0 76 -48 122l-162 -274q27 -12 60 -12q66 0 108 46t42 118z" />
    <glyph glyph-name="Ugrave" unicode="&#xd9;" horiz-adv-x="684" 
d="M342 160q44 0 71.5 26.5t27.5 81.5v380h190v-391q0 -129 -80.5 -199t-208.5 -70t-208.5 70t-80.5 199v391h190v-380q0 -55 27.5 -81.5t71.5 -26.5zM292 681l-145 179h174l105 -179h-134z" />
    <glyph glyph-name="Uacute" unicode="&#xda;" horiz-adv-x="684" 
d="M342 160q44 0 71.5 26.5t27.5 81.5v380h190v-391q0 -129 -80.5 -199t-208.5 -70t-208.5 70t-80.5 199v391h190v-380q0 -55 27.5 -81.5t71.5 -26.5zM252 681l105 179h175l-145 -179h-135z" />
    <glyph glyph-name="Ucircumflex" unicode="&#xdb;" horiz-adv-x="684" 
d="M342 160q44 0 71.5 26.5t27.5 81.5v380h190v-391q0 -129 -80.5 -199t-208.5 -70t-208.5 70t-80.5 199v391h190v-380q0 -55 27.5 -81.5t71.5 -26.5zM125 681l132 179h173l132 -179h-127l-92 98l-90 -98h-128z" />
    <glyph glyph-name="Udieresis" unicode="&#xdc;" horiz-adv-x="684" 
d="M342 160q44 0 71.5 26.5t27.5 81.5v380h190v-391q0 -129 -80.5 -199t-208.5 -70t-208.5 70t-80.5 199v391h190v-380q0 -55 27.5 -81.5t71.5 -26.5zM153 758q0 33 23.5 56t56.5 23t56.5 -23t23.5 -56t-23.5 -56t-56.5 -23t-56.5 23t-23.5 56zM374 758q0 33 23.5 56
t56.5 23t56.5 -23t23.5 -56t-23.5 -56t-56.5 -23t-56.5 23t-23.5 56z" />
    <glyph glyph-name="Yacute" unicode="&#xdd;" horiz-adv-x="661" 
d="M237 0v281l-229 367h217l107 -201l104 201h217l-226 -367v-281h-190zM241 681l105 179h175l-145 -179h-135z" />
    <glyph glyph-name="Thorn" unicode="&#xde;" horiz-adv-x="591" 
d="M55 0v648h190v-81h80q101 0 172.5 -69t71.5 -167t-71.5 -167t-172.5 -69h-80v-95h-190zM245 253h50q33 0 54.5 22.5t21.5 55.5t-21.5 55.5t-54.5 22.5h-50v-156z" />
    <glyph glyph-name="germandbls" unicode="&#xdf;" horiz-adv-x="560" 
d="M40 0v427q0 112 58.5 171.5t153.5 59.5q93 0 153 -55.5t60 -132.5q0 -74 -60 -135q58 -18 95.5 -61.5t37.5 -104.5q0 -89 -55.5 -135t-141.5 -46q-39 0 -84 12l37 169q11 -4 24 -4q38 0 38 36q0 50 -108 50h-4v133l8 1q21 1 28.5 13t7.5 36q0 21 -9 34t-24 13
q-16 0 -24.5 -13t-8.5 -34v-434h-182z" />
    <glyph glyph-name="agrave" unicode="&#xe0;" horiz-adv-x="600" 
d="M388 454v57h172v-511h-172v57q-17 -36 -57 -51.5t-79 -15.5q-104 0 -163 75t-59 190q0 116 59 191t163 75q39 0 79 -15.5t57 -51.5zM215 255q0 -46 23 -75.5t59 -29.5t59 29.5t23 75.5t-23 76t-59 30t-59 -30t-23 -76zM242 570l-145 179h174l105 -179h-134z" />
    <glyph glyph-name="aacute" unicode="&#xe1;" horiz-adv-x="600" 
d="M388 454v57h172v-511h-172v57q-17 -36 -57 -51.5t-79 -15.5q-104 0 -163 75t-59 190q0 116 59 191t163 75q39 0 79 -15.5t57 -51.5zM215 255q0 -46 23 -75.5t59 -29.5t59 29.5t23 75.5t-23 76t-59 30t-59 -30t-23 -76zM162 570l105 179h175l-145 -179h-135z" />
    <glyph glyph-name="acircumflex" unicode="&#xe2;" horiz-adv-x="600" 
d="M388 454v57h172v-511h-172v57q-17 -36 -57 -51.5t-79 -15.5q-104 0 -163 75t-59 190q0 116 59 191t163 75q39 0 79 -15.5t57 -51.5zM215 255q0 -46 23 -75.5t59 -29.5t59 29.5t23 75.5t-23 76t-59 30t-59 -30t-23 -76zM92 575l132 179h173l132 -179h-127l-92 98l-90 -98
h-128z" />
    <glyph glyph-name="atilde" unicode="&#xe3;" horiz-adv-x="600" 
d="M388 454v57h172v-511h-172v57q-17 -36 -57 -51.5t-79 -15.5q-104 0 -163 75t-59 190q0 116 59 191t163 75q39 0 79 -15.5t57 -51.5zM215 255q0 -46 23 -75.5t59 -29.5t59 29.5t23 75.5t-23 76t-59 30t-59 -30t-23 -76zM101 561q0 73 29.5 115t76.5 42q33 0 67 -14.5
t58 -29t34 -14.5q22 0 29 15t7 43h90q0 -73 -29.5 -115t-76.5 -42q-33 0 -67 14.5t-58 29t-34 14.5q-22 0 -29 -15t-7 -43h-90z" />
    <glyph glyph-name="adieresis" unicode="&#xe4;" horiz-adv-x="600" 
d="M388 454v57h172v-511h-172v57q-17 -36 -57 -51.5t-79 -15.5q-104 0 -163 75t-59 190q0 116 59 191t163 75q39 0 79 -15.5t57 -51.5zM215 255q0 -46 23 -75.5t59 -29.5t59 29.5t23 75.5t-23 76t-59 30t-59 -30t-23 -76zM103 648q0 33 23.5 56t56.5 23t56.5 -23t23.5 -56
t-23.5 -56t-56.5 -23t-56.5 23t-23.5 56zM324 648q0 33 23.5 56t56.5 23t56.5 -23t23.5 -56t-23.5 -56t-56.5 -23t-56.5 23t-23.5 56z" />
    <glyph glyph-name="aring" unicode="&#xe5;" horiz-adv-x="600" 
d="M388 454v57h172v-511h-172v57q-17 -36 -57 -51.5t-79 -15.5q-104 0 -163 75t-59 190q0 116 59 191t163 75q39 0 79 -15.5t57 -51.5zM215 255q0 -46 23 -75.5t59 -29.5t59 29.5t23 75.5t-23 76t-59 30t-59 -30t-23 -76zM176 673q0 49 34 83t83 34t83 -34t34 -83t-34 -83
t-83 -34t-83 34t-34 83zM252 673q0 -18 12 -31t29 -13t29 13t12 31t-12 30.5t-29 12.5t-29 -12.5t-12 -30.5z" />
    <glyph glyph-name="ae" unicode="&#xe6;" horiz-adv-x="917" 
d="M833 43q-78 -53 -183 -53q-61 0 -124 23.5t-99 63.5q-34 -41 -90 -63t-115 -22q-90 0 -137 41t-47 103q0 86 79 141t199 55h31q-15 44 -81 44q-26 0 -57 -6t-49 -12l-18 -7l-52 116q21 15 78.5 34.5t118.5 19.5q103 0 167 -65q64 65 175 65q108 0 182 -77.5t74 -188.5
l-4 -59h-339q19 -65 110 -65q59 0 113 26zM629 378q-34 0 -59 -22t-33 -57h182q-4 35 -29.5 57t-60.5 22zM206 160q0 -15 13.5 -23.5t32.5 -8.5q42 0 72.5 24.5t30.5 68.5q-69 0 -109 -18.5t-40 -42.5z" />
    <glyph glyph-name="ccedilla" unicode="&#xe7;" horiz-adv-x="503" 
d="M163 -193l38 64q38 -21 74 -21q22 0 34.5 10.5t12.5 26.5q0 18 -15 18q-14 0 -25 -27l-86 25l55 92q-97 17 -159 90t-62 170q0 112 79.5 189t196.5 77q101 0 181 -64l-105 -126q-32 30 -71 30q-44 0 -70.5 -30t-26.5 -76q0 -47 27 -76t74 -29q49 0 86 37l91 -134
q-58 -49 -142 -60l-15 -25h4q44 0 66 -25t22 -56q0 -41 -35.5 -76t-108.5 -35q-75 0 -120 31z" />
    <glyph glyph-name="egrave" unicode="&#xe8;" horiz-adv-x="582" 
d="M500 38q-78 -48 -183 -48q-121 0 -204 71.5t-83 193.5q0 112 76.5 189t189.5 77q108 0 182 -77.5t74 -188.5l-4 -59h-339q21 -66 109 -66q66 0 121 31zM296 378q-34 0 -59 -22t-33 -57h182q-4 35 -29.5 57t-60.5 22zM242 570l-145 179h174l105 -179h-134z" />
    <glyph glyph-name="eacute" unicode="&#xe9;" horiz-adv-x="582" 
d="M500 38q-78 -48 -183 -48q-121 0 -204 71.5t-83 193.5q0 112 76.5 189t189.5 77q108 0 182 -77.5t74 -188.5l-4 -59h-339q21 -66 109 -66q66 0 121 31zM296 378q-34 0 -59 -22t-33 -57h182q-4 35 -29.5 57t-60.5 22zM218 570l105 179h175l-145 -179h-135z" />
    <glyph glyph-name="ecircumflex" unicode="&#xea;" horiz-adv-x="582" 
d="M500 38q-78 -48 -183 -48q-121 0 -204 71.5t-83 193.5q0 112 76.5 189t189.5 77q108 0 182 -77.5t74 -188.5l-4 -59h-339q21 -66 109 -66q66 0 121 31zM296 378q-34 0 -59 -22t-33 -57h182q-4 35 -29.5 57t-60.5 22zM86 575l132 179h173l132 -179h-127l-92 98l-90 -98
h-128z" />
    <glyph glyph-name="edieresis" unicode="&#xeb;" horiz-adv-x="582" 
d="M500 38q-78 -48 -183 -48q-121 0 -204 71.5t-83 193.5q0 112 76.5 189t189.5 77q108 0 182 -77.5t74 -188.5l-4 -59h-339q21 -66 109 -66q66 0 121 31zM296 378q-34 0 -59 -22t-33 -57h182q-4 35 -29.5 57t-60.5 22zM108 648q0 33 23.5 56t56.5 23t56.5 -23t23.5 -56
t-23.5 -56t-56.5 -23t-56.5 23t-23.5 56zM329 648q0 33 23.5 56t56.5 23t56.5 -23t23.5 -56t-23.5 -56t-56.5 -23t-56.5 23t-23.5 56z" />
    <glyph glyph-name="igrave" unicode="&#xec;" horiz-adv-x="262" 
d="M40 0v511h182v-511h-182zM92 570l-145 179h174l105 -179h-134z" />
    <glyph glyph-name="iacute" unicode="&#xed;" horiz-adv-x="262" 
d="M40 0v511h182v-511h-182zM35 570l105 179h175l-145 -179h-135z" />
    <glyph glyph-name="icircumflex" unicode="&#xee;" horiz-adv-x="262" 
d="M-87 575l132 179h173l132 -179h-127l-92 98l-90 -98h-128zM40 0v511h182v-511h-182z" />
    <glyph glyph-name="idieresis" unicode="&#xef;" horiz-adv-x="262" 
d="M-59 648q0 33 23.5 56t56.5 23t56.5 -23t23.5 -56t-23.5 -56t-56.5 -23t-56.5 23t-23.5 56zM162 648q0 33 23.5 56t56.5 23t56.5 -23t23.5 -56t-23.5 -56t-56.5 -23t-56.5 23t-23.5 56zM40 0v511h182v-511h-182z" />
    <glyph glyph-name="eth" unicode="&#xf0;" horiz-adv-x="612" 
d="M441 619l-54 -22q195 -117 195 -326q0 -114 -77.5 -197.5t-198.5 -83.5q-117 0 -196.5 77t-79.5 188q0 97 74.5 166.5t184.5 69.5q21 0 54 -7q-37 33 -90 57l-110 -45l-25 55l51 21q-20 6 -60 14l75 89q69 -15 132 -42l99 41zM214 255q0 -46 25.5 -75.5t66.5 -29.5
t66.5 29.5t25.5 75.5t-26 76t-66 30t-66 -30t-26 -76z" />
    <glyph glyph-name="ntilde" unicode="&#xf1;" horiz-adv-x="580" 
d="M40 0v511h172v-56q57 66 154 66q47 0 81.5 -15.5t53 -37.5t29 -56t13 -62t2.5 -65v-285h-182v262q0 89 -57 89q-39 0 -61.5 -30.5t-22.5 -79.5v-241h-182zM84 561q0 73 29.5 115t76.5 42q33 0 67 -14.5t58 -29t34 -14.5q22 0 29 15t7 43h90q0 -73 -29.5 -115t-76.5 -42
q-33 0 -67 14.5t-58 29t-34 14.5q-22 0 -29 -15t-7 -43h-90z" />
    <glyph glyph-name="ograve" unicode="&#xf2;" horiz-adv-x="612" 
d="M30 255q0 112 79.5 189t196.5 77t196.5 -77t79.5 -189q0 -111 -79.5 -188t-196.5 -77t-196.5 77t-79.5 188zM214 255q0 -46 25.5 -75.5t66.5 -29.5t66.5 29.5t25.5 75.5t-26 76t-66 30t-66 -30t-26 -76zM276 570l-145 179h174l105 -179h-134z" />
    <glyph glyph-name="oacute" unicode="&#xf3;" horiz-adv-x="612" 
d="M30 255q0 112 79.5 189t196.5 77t196.5 -77t79.5 -189q0 -111 -79.5 -188t-196.5 -77t-196.5 77t-79.5 188zM214 255q0 -46 25.5 -75.5t66.5 -29.5t66.5 29.5t25.5 75.5t-26 76t-66 30t-66 -30t-26 -76zM190 570l105 179h175l-145 -179h-135z" />
    <glyph glyph-name="ocircumflex" unicode="&#xf4;" horiz-adv-x="612" 
d="M30 255q0 112 79.5 189t196.5 77t196.5 -77t79.5 -189q0 -111 -79.5 -188t-196.5 -77t-196.5 77t-79.5 188zM214 255q0 -46 25.5 -75.5t66.5 -29.5t66.5 29.5t25.5 75.5t-26 76t-66 30t-66 -30t-26 -76zM88 575l132 179h173l132 -179h-127l-92 98l-90 -98h-128z" />
    <glyph glyph-name="otilde" unicode="&#xf5;" horiz-adv-x="612" 
d="M30 255q0 112 79.5 189t196.5 77t196.5 -77t79.5 -189q0 -111 -79.5 -188t-196.5 -77t-196.5 77t-79.5 188zM214 255q0 -46 25.5 -75.5t66.5 -29.5t66.5 29.5t25.5 75.5t-26 76t-66 30t-66 -30t-26 -76zM111 561q0 73 29.5 115t76.5 42q33 0 67 -14.5t58 -29t34 -14.5
q22 0 29 15t7 43h90q0 -73 -29.5 -115t-76.5 -42q-33 0 -67 14.5t-58 29t-34 14.5q-22 0 -29 -15t-7 -43h-90z" />
    <glyph glyph-name="odieresis" unicode="&#xf6;" horiz-adv-x="612" 
d="M30 255q0 112 79.5 189t196.5 77t196.5 -77t79.5 -189q0 -111 -79.5 -188t-196.5 -77t-196.5 77t-79.5 188zM214 255q0 -46 25.5 -75.5t66.5 -29.5t66.5 29.5t25.5 75.5t-26 76t-66 30t-66 -30t-26 -76zM116 648q0 33 23.5 56t56.5 23t56.5 -23t23.5 -56t-23.5 -56
t-56.5 -23t-56.5 23t-23.5 56zM337 648q0 33 23.5 56t56.5 23t56.5 -23t23.5 -56t-23.5 -56t-56.5 -23t-56.5 23t-23.5 56z" />
    <glyph glyph-name="divide" unicode="&#xf7;" 
d="M198 62q0 41 27.5 68.5t69.5 27.5q43 0 71 -27.5t28 -68.5t-28 -68t-71 -27t-70 27t-27 68zM52 222v144h486v-144h-486zM198 526q0 41 27.5 68.5t69.5 27.5q43 0 71 -27.5t28 -68.5t-28 -68t-71 -27t-70 27t-27 68z" />
    <glyph glyph-name="oslash" unicode="&#xf8;" horiz-adv-x="612" 
d="M30 255q0 111 81 188.5t195 77.5q55 0 104 -20l49 81l62 -37l-48 -79q51 -37 80 -92t29 -119q0 -110 -81 -187.5t-195 -77.5q-56 0 -107 20l-47 -77l-62 37l45 76q-49 37 -77 91.5t-28 117.5zM398 255q0 41 -22 71l-103 -170q15 -6 33 -6q41 0 66.5 29.5t25.5 75.5z
M214 255q0 -43 21 -70l103 170q-15 6 -32 6q-40 0 -66 -30t-26 -76z" />
    <glyph glyph-name="ugrave" unicode="&#xf9;" horiz-adv-x="580" 
d="M540 511v-511h-172v56q-31 -40 -66 -53t-81 -13q-56 0 -94 18.5t-57 53.5t-27 74t-8 90v285h182v-262q0 -46 15.5 -67.5t50.5 -21.5q75 0 75 110v241h182zM258 570l-145 179h174l105 -179h-134z" />
    <glyph glyph-name="uacute" unicode="&#xfa;" horiz-adv-x="580" 
d="M540 511v-511h-172v56q-31 -40 -66 -53t-81 -13q-56 0 -94 18.5t-57 53.5t-27 74t-8 90v285h182v-262q0 -46 15.5 -67.5t50.5 -21.5q75 0 75 110v241h182zM175 570l105 179h175l-145 -179h-135z" />
    <glyph glyph-name="ucircumflex" unicode="&#xfb;" horiz-adv-x="580" 
d="M540 511v-511h-172v56q-31 -40 -66 -53t-81 -13q-56 0 -94 18.5t-57 53.5t-27 74t-8 90v285h182v-262q0 -46 15.5 -67.5t50.5 -21.5q75 0 75 110v241h182zM74 575l132 179h173l132 -179h-127l-92 98l-90 -98h-128z" />
    <glyph glyph-name="udieresis" unicode="&#xfc;" horiz-adv-x="580" 
d="M540 511v-511h-172v56q-31 -40 -66 -53t-81 -13q-56 0 -94 18.5t-57 53.5t-27 74t-8 90v285h182v-262q0 -46 15.5 -67.5t50.5 -21.5q75 0 75 110v241h182zM102 648q0 33 23.5 56t56.5 23t56.5 -23t23.5 -56t-23.5 -56t-56.5 -23t-56.5 23t-23.5 56zM323 648q0 33 23.5 56
t56.5 23t56.5 -23t23.5 -56t-23.5 -56t-56.5 -23t-56.5 23t-23.5 56z" />
    <glyph glyph-name="yacute" unicode="&#xfd;" horiz-adv-x="560" 
d="M100 -147v161q69 0 89 35l15 28l-198 434h180l99 -262l89 262h180l-214 -508q-21 -50 -51 -82.5t-66 -46t-62.5 -17.5t-60.5 -4zM200 570l105 179h175l-145 -179h-135z" />
    <glyph glyph-name="thorn" unicode="&#xfe;" horiz-adv-x="612" 
d="M52 -147v795h182v-178q38 51 125 51q103 0 163 -75.5t60 -189.5q0 -115 -60 -190.5t-163 -75.5q-83 0 -125 53v-190h-182zM233 255q0 -46 23 -75.5t59 -29.5t59 29.5t23 75.5t-23 76t-59 30t-59 -30t-23 -76z" />
    <glyph glyph-name="ydieresis" unicode="&#xff;" horiz-adv-x="560" 
d="M94 648q0 33 23.5 56t56.5 23t56.5 -23t23.5 -56t-23.5 -56t-56.5 -23t-56.5 23t-23.5 56zM315 648q0 33 23.5 56t56.5 23t56.5 -23t23.5 -56t-23.5 -56t-56.5 -23t-56.5 23t-23.5 56zM100 -147v161q69 0 89 35l15 28l-198 434h180l99 -262l89 262h180l-214 -508
q-21 -50 -51 -82.5t-66 -46t-62.5 -17.5t-60.5 -4z" />
    <glyph glyph-name="Amacron" unicode="&#x100;" horiz-adv-x="736" 
d="M283 230h170l-85 242zM232 84l-30 -84h-194l262 648h196l262 -648h-194l-30 84h-272zM235 713v105h266v-105h-266z" />
    <glyph glyph-name="amacron" unicode="&#x101;" horiz-adv-x="600" 
d="M388 454v57h172v-511h-172v57q-17 -36 -57 -51.5t-79 -15.5q-104 0 -163 75t-59 190q0 116 59 191t163 75q39 0 79 -15.5t57 -51.5zM215 255q0 -46 23 -75.5t59 -29.5t59 29.5t23 75.5t-23 76t-59 30t-59 -30t-23 -76zM160 579v105h266v-105h-266z" />
    <glyph glyph-name="Abreve" unicode="&#x102;" horiz-adv-x="736" 
d="M283 230h170l-85 242zM232 84l-30 -84h-194l262 648h196l262 -648h-194l-30 84h-272zM368 677q-66 0 -107 45t-41 108h91q0 -22 16 -37.5t41 -15.5q24 0 39.5 15.5t15.5 37.5h93q0 -63 -41 -108t-107 -45z" />
    <glyph glyph-name="abreve" unicode="&#x103;" horiz-adv-x="600" 
d="M388 454v57h172v-511h-172v57q-17 -36 -57 -51.5t-79 -15.5q-104 0 -163 75t-59 190q0 116 59 191t163 75q39 0 79 -15.5t57 -51.5zM215 255q0 -46 23 -75.5t59 -29.5t59 29.5t23 75.5t-23 76t-59 30t-59 -30t-23 -76zM293 557q-66 0 -107 45t-41 108h91q0 -22 16 -37.5
t41 -15.5q24 0 39.5 15.5t15.5 37.5h93q0 -63 -41 -108t-107 -45z" />
    <glyph glyph-name="Aogonek" unicode="&#x104;" horiz-adv-x="736" 
d="M491 -128q0 67 43 128l-30 84h-272l-30 -84h-194l262 648h196l262 -648h-108q-30 -30 -30 -70q0 -23 14.5 -37.5t42.5 -14.5q7 0 16.5 2.5t10.5 2.5l21 -67q-49 -36 -110 -36q-38 0 -66 24.5t-28 67.5zM283 230h170l-85 242z" />
    <glyph glyph-name="aogonek" unicode="&#x105;" horiz-adv-x="600" 
d="M342 -128q0 69 46 133v52q-17 -36 -57 -51.5t-79 -15.5q-104 0 -163 75t-59 190q0 116 59 191t163 75q39 0 79 -15.5t57 -51.5v57h172v-511h-89q-30 -30 -30 -70q0 -23 14.5 -37.5t42.5 -14.5q7 0 16.5 2.5t10.5 2.5l21 -67q-49 -36 -110 -36q-38 0 -66 24.5t-28 67.5z
M215 255q0 -46 23 -75.5t59 -29.5t59 29.5t23 75.5t-23 76t-59 30t-59 -30t-23 -76z" />
    <glyph glyph-name="Cacute" unicode="&#x106;" horiz-adv-x="658" 
d="M524 232l121 -133q-100 -111 -267 -111q-152 0 -247.5 96.5t-95.5 239.5q0 142 95.5 238t247.5 96q153 0 247 -94l-125 -129q-50 51 -114 51t-108.5 -46t-44.5 -116q0 -72 43 -118t110 -46q84 0 138 72zM288 681l105 179h175l-145 -179h-135z" />
    <glyph glyph-name="cacute" unicode="&#x107;" horiz-adv-x="503" 
d="M401 187l91 -134q-75 -63 -186 -63q-117 0 -196.5 77t-79.5 188q0 112 79.5 189t196.5 77q101 0 181 -64l-105 -126q-32 30 -71 30q-44 0 -70.5 -30t-26.5 -76q0 -47 27 -76t74 -29q49 0 86 37zM206 570l105 179h175l-145 -179h-135z" />
    <glyph glyph-name="Ccircumflex" unicode="&#x108;" horiz-adv-x="658" 
d="M524 232l121 -133q-100 -111 -267 -111q-152 0 -247.5 96.5t-95.5 239.5q0 142 95.5 238t247.5 96q153 0 247 -94l-125 -129q-50 51 -114 51t-108.5 -46t-44.5 -116q0 -72 43 -118t110 -46q84 0 138 72zM170 681l132 179h173l132 -179h-127l-92 98l-90 -98h-128z" />
    <glyph glyph-name="ccircumflex" unicode="&#x109;" horiz-adv-x="503" 
d="M401 187l91 -134q-75 -63 -186 -63q-117 0 -196.5 77t-79.5 188q0 112 79.5 189t196.5 77q101 0 181 -64l-105 -126q-32 30 -71 30q-44 0 -70.5 -30t-26.5 -76q0 -47 27 -76t74 -29q49 0 86 37zM88 575l132 179h173l132 -179h-127l-92 98l-90 -98h-128z" />
    <glyph glyph-name="Cdotaccent" unicode="&#x10a;" horiz-adv-x="658" 
d="M524 232l121 -133q-100 -111 -267 -111q-152 0 -247.5 96.5t-95.5 239.5q0 142 95.5 238t247.5 96q153 0 247 -94l-125 -129q-50 51 -114 51t-108.5 -46t-44.5 -116q0 -72 43 -118t110 -46q84 0 138 72zM303 781q0 37 26.5 63.5t64.5 26.5t64.5 -26.5t26.5 -63.5
t-26.5 -63.5t-64.5 -26.5t-64.5 26.5t-26.5 63.5z" />
    <glyph glyph-name="cdotaccent" unicode="&#x10b;" horiz-adv-x="503" 
d="M401 187l91 -134q-75 -63 -186 -63q-117 0 -196.5 77t-79.5 188q0 112 79.5 189t196.5 77q101 0 181 -64l-105 -126q-32 30 -71 30q-44 0 -70.5 -30t-26.5 -76q0 -47 27 -76t74 -29q49 0 86 37zM214 633q0 37 26.5 63.5t64.5 26.5t64.5 -26.5t26.5 -63.5t-26.5 -63.5
t-64.5 -26.5t-64.5 26.5t-26.5 63.5z" />
    <glyph glyph-name="Ccaron" unicode="&#x10c;" horiz-adv-x="658" 
d="M524 232l121 -133q-100 -111 -267 -111q-152 0 -247.5 96.5t-95.5 239.5q0 142 95.5 238t247.5 96q153 0 247 -94l-125 -129q-50 51 -114 51t-108.5 -46t-44.5 -116q0 -72 43 -118t110 -46q84 0 138 72zM303 681l-132 179h127l91 -98l91 98h128l-132 -179h-173z" />
    <glyph glyph-name="ccaron" unicode="&#x10d;" horiz-adv-x="503" 
d="M401 187l91 -134q-75 -63 -186 -63q-117 0 -196.5 77t-79.5 188q0 112 79.5 189t196.5 77q101 0 181 -64l-105 -126q-32 30 -71 30q-44 0 -70.5 -30t-26.5 -76q0 -47 27 -76t74 -29q49 0 86 37zM218 575l-132 179h127l91 -98l91 98h128l-132 -179h-173z" />
    <glyph glyph-name="Dcaron" unicode="&#x10e;" horiz-adv-x="713" 
d="M245 161h73q72 0 115.5 46t43.5 117t-43.5 117t-115.5 46h-73v-326zM55 0v648h270q159 0 256 -93.5t97 -230.5t-97 -230.5t-256 -93.5h-270zM219 681l-132 179h127l91 -98l91 98h128l-132 -179h-173z" />
    <glyph glyph-name="dcaron" unicode="&#x10f;" horiz-adv-x="600" 
d="M560 658v-658h-172v57q-17 -36 -57 -51.5t-79 -15.5q-104 0 -163 75t-59 190t61 190.5t167 75.5q79 0 120 -53v190h182zM215 255q0 -46 23 -75.5t59 -29.5t59 29.5t23 75.5t-23 76t-59 30t-59 -30t-23 -76zM586 471q56 52 56 107q0 34 -26 60l108 38q33 -39 33 -78
q0 -64 -80 -127h-91z" />
    <glyph glyph-name="Dcroat" unicode="&#x110;" horiz-adv-x="713" 
d="M55 0v273h-70v114h70v261h270q159 0 256 -93.5t97 -230.5t-97.5 -230.5t-255.5 -93.5h-270zM245 161h72q72 0 116 45.5t44 117.5q0 71 -43.5 117t-115.5 46h-73v-100h92v-114h-92v-112z" />
    <glyph glyph-name="dcroat" unicode="&#x111;" horiz-adv-x="600" 
d="M560 658v-31h58v-79h-58v-548h-172v57q-17 -36 -57 -51.5t-79 -15.5q-104 0 -163 75t-59 190t61 190.5t167 75.5q79 0 120 -53v80h-104v79h104v31h182zM215 255q0 -46 23 -75.5t59 -29.5t59 29.5t23 75.5t-23 76t-59 30t-59 -30t-23 -76z" />
    <glyph glyph-name="Emacron" unicode="&#x112;" horiz-adv-x="603" 
d="M55 0v648h515v-161h-325v-79h312v-159h-312v-88h337v-161h-527zM190 713v105h266v-105h-266z" />
    <glyph glyph-name="emacron" unicode="&#x113;" horiz-adv-x="582" 
d="M500 38q-78 -48 -183 -48q-121 0 -204 71.5t-83 193.5q0 112 76.5 189t189.5 77q108 0 182 -77.5t74 -188.5l-4 -59h-339q21 -66 109 -66q66 0 121 31zM296 378q-34 0 -59 -22t-33 -57h182q-4 35 -29.5 57t-60.5 22zM166 579v105h266v-105h-266z" />
    <glyph glyph-name="Ebreve" unicode="&#x114;" horiz-adv-x="603" 
d="M55 0v648h515v-161h-325v-79h312v-159h-312v-88h337v-161h-527zM321 677q-66 0 -107 45t-41 108h91q0 -22 16 -37.5t41 -15.5q24 0 39.5 15.5t15.5 37.5h93q0 -63 -41 -108t-107 -45z" />
    <glyph glyph-name="ebreve" unicode="&#x115;" horiz-adv-x="582" 
d="M500 38q-78 -48 -183 -48q-121 0 -204 71.5t-83 193.5q0 112 76.5 189t189.5 77q108 0 182 -77.5t74 -188.5l-4 -59h-339q21 -66 109 -66q66 0 121 31zM296 378q-34 0 -59 -22t-33 -57h182q-4 35 -29.5 57t-60.5 22zM298 557q-66 0 -107 45t-41 108h91q0 -22 16 -37.5
t41 -15.5q24 0 39.5 15.5t15.5 37.5h93q0 -63 -41 -108t-107 -45z" />
    <glyph glyph-name="Edotaccent" unicode="&#x116;" horiz-adv-x="603" 
d="M55 0v648h515v-161h-325v-79h312v-159h-312v-88h337v-161h-527zM228 781q0 37 26.5 63.5t64.5 26.5t64.5 -26.5t26.5 -63.5t-26.5 -63.5t-64.5 -26.5t-64.5 26.5t-26.5 63.5z" />
    <glyph glyph-name="edotaccent" unicode="&#x117;" horiz-adv-x="582" 
d="M500 38q-78 -48 -183 -48q-121 0 -204 71.5t-83 193.5q0 112 76.5 189t189.5 77q108 0 182 -77.5t74 -188.5l-4 -59h-339q21 -66 109 -66q66 0 121 31zM296 378q-34 0 -59 -22t-33 -57h182q-4 35 -29.5 57t-60.5 22zM208 633q0 37 26.5 63.5t64.5 26.5t64.5 -26.5
t26.5 -63.5t-26.5 -63.5t-64.5 -26.5t-64.5 26.5t-26.5 63.5z" />
    <glyph glyph-name="Eogonek" unicode="&#x118;" horiz-adv-x="603" 
d="M55 0v648h515v-161h-325v-79h312v-159h-312v-88h337v-161h-76q-30 -30 -30 -70q0 -23 14.5 -37.5t42.5 -14.5q7 0 16.5 2.5t10.5 2.5l21 -67q-49 -36 -110 -36q-38 0 -66 24.5t-28 67.5q0 66 42 128h-364z" />
    <glyph glyph-name="eogonek" unicode="&#x119;" horiz-adv-x="582" 
d="M231 -128q0 63 38 122q-105 13 -172 82.5t-67 178.5q0 112 76.5 189t189.5 77q108 0 182 -77.5t74 -188.5l-4 -59h-339q21 -66 109 -66q66 0 121 31l61 -123q-62 -39 -147 -46q-23 -28 -23 -62q0 -23 14.5 -37.5t42.5 -14.5q7 0 16.5 2.5t10.5 2.5l21 -67
q-49 -36 -110 -36q-38 0 -66 24.5t-28 67.5zM296 378q-34 0 -59 -22t-33 -57h182q-4 35 -29.5 57t-60.5 22z" />
    <glyph glyph-name="Ecaron" unicode="&#x11a;" horiz-adv-x="603" 
d="M55 0v648h515v-161h-325v-79h312v-159h-312v-88h337v-161h-527zM234 681l-132 179h127l91 -98l91 98h128l-132 -179h-173z" />
    <glyph glyph-name="ecaron" unicode="&#x11b;" horiz-adv-x="582" 
d="M500 38q-78 -48 -183 -48q-121 0 -204 71.5t-83 193.5q0 112 76.5 189t189.5 77q108 0 182 -77.5t74 -188.5l-4 -59h-339q21 -66 109 -66q66 0 121 31zM296 378q-34 0 -59 -22t-33 -57h182q-4 35 -29.5 57t-60.5 22zM214 575l-132 179h127l91 -98l91 98h128l-132 -179
h-173z" />
    <glyph glyph-name="Gcircumflex" unicode="&#x11c;" horiz-adv-x="715" 
d="M35 324q0 142 95.5 238t247.5 96q153 0 247 -94l-125 -129q-50 51 -114 51t-108.5 -46t-44.5 -116q0 -72 43 -118t110 -46q56 0 110 37v59h-89v112h253v-251q-41 -60 -115.5 -94.5t-162.5 -34.5q-153 0 -250 96.5t-97 239.5zM157 681l132 179h173l132 -179h-127l-92 98
l-90 -98h-128z" />
    <glyph glyph-name="gcircumflex" unicode="&#x11d;" horiz-adv-x="595" 
d="M560 511v-372q0 -58 -14 -107t-45 -90.5t-87.5 -65t-133.5 -23.5q-144 0 -224 54l65 114q51 -33 139 -33q59 0 88.5 28t29.5 65q-19 -26 -52.5 -38.5t-67.5 -12.5q-105 0 -166.5 70t-61.5 175q0 106 61.5 176t166.5 70q37 0 74.5 -16t55.5 -51v57h172zM379 275
q0 39 -23 64t-59 25t-59 -25t-23 -64t23 -63.5t59 -24.5t59 24.5t23 63.5zM93 575l132 179h173l132 -179h-127l-92 98l-90 -98h-128z" />
    <glyph glyph-name="Gbreve" unicode="&#x11e;" horiz-adv-x="715" 
d="M35 324q0 142 95.5 238t247.5 96q153 0 247 -94l-125 -129q-50 51 -114 51t-108.5 -46t-44.5 -116q0 -72 43 -118t110 -46q56 0 110 37v59h-89v112h253v-251q-41 -60 -115.5 -94.5t-162.5 -34.5q-153 0 -250 96.5t-97 239.5zM371 677q-66 0 -107 45t-41 108h91
q0 -22 16 -37.5t41 -15.5q24 0 39.5 15.5t15.5 37.5h93q0 -63 -41 -108t-107 -45z" />
    <glyph glyph-name="gbreve" unicode="&#x11f;" horiz-adv-x="595" 
d="M560 511v-372q0 -58 -14 -107t-45 -90.5t-87.5 -65t-133.5 -23.5q-144 0 -224 54l65 114q51 -33 139 -33q59 0 88.5 28t29.5 65q-19 -26 -52.5 -38.5t-67.5 -12.5q-105 0 -166.5 70t-61.5 175q0 106 61.5 176t166.5 70q37 0 74.5 -16t55.5 -51v57h172zM379 275
q0 39 -23 64t-59 25t-59 -25t-23 -64t23 -63.5t59 -24.5t59 24.5t23 63.5zM318 557q-66 0 -107 45t-41 108h91q0 -22 16 -37.5t41 -15.5q24 0 39.5 15.5t15.5 37.5h93q0 -63 -41 -108t-107 -45z" />
    <glyph glyph-name="Gdotaccent" unicode="&#x120;" horiz-adv-x="715" 
d="M35 324q0 142 95.5 238t247.5 96q153 0 247 -94l-125 -129q-50 51 -114 51t-108.5 -46t-44.5 -116q0 -72 43 -118t110 -46q56 0 110 37v59h-89v112h253v-251q-41 -60 -115.5 -94.5t-162.5 -34.5q-153 0 -250 96.5t-97 239.5zM289 781q0 37 26.5 63.5t64.5 26.5
t64.5 -26.5t26.5 -63.5t-26.5 -63.5t-64.5 -26.5t-64.5 26.5t-26.5 63.5z" />
    <glyph glyph-name="gdotaccent" unicode="&#x121;" horiz-adv-x="595" 
d="M560 511v-372q0 -58 -14 -107t-45 -90.5t-87.5 -65t-133.5 -23.5q-144 0 -224 54l65 114q51 -33 139 -33q59 0 88.5 28t29.5 65q-19 -26 -52.5 -38.5t-67.5 -12.5q-105 0 -166.5 70t-61.5 175q0 106 61.5 176t166.5 70q37 0 74.5 -16t55.5 -51v57h172zM379 275
q0 39 -23 64t-59 25t-59 -25t-23 -64t23 -63.5t59 -24.5t59 24.5t23 63.5zM205 633q0 37 26.5 63.5t64.5 26.5t64.5 -26.5t26.5 -63.5t-26.5 -63.5t-64.5 -26.5t-64.5 26.5t-26.5 63.5z" />
    <glyph glyph-name="Gcommaaccent" unicode="&#x122;" horiz-adv-x="715" 
d="M35 324q0 142 95.5 238t247.5 96q153 0 247 -94l-125 -129q-50 51 -114 51t-108.5 -46t-44.5 -116q0 -72 43 -118t110 -46q56 0 110 37v59h-89v112h253v-251q-41 -60 -115.5 -94.5t-162.5 -34.5q-153 0 -250 96.5t-97 239.5zM299 -235q56 52 56 107q0 34 -26 60l108 38
q33 -39 33 -78q0 -64 -80 -127h-91z" />
    <glyph glyph-name="gcommaaccent" unicode="&#x123;" horiz-adv-x="591" 
d="M256 549q-82 63 -82 134q0 49 36 72l108 -39q-28 -22 -28 -62q0 -17 8.5 -36t17.5 -31t20 -24.5t12 -13.5h-92zM30 285q0 100 61.5 168t166.5 68q61 0 116 -47v37h182v-395q0 -48 -14 -92t-44.5 -83.5t-87.5 -63.5t-134 -24q-138 0 -220 55l71 121q57 -37 138 -37
q58 0 83.5 29t25.5 61q-54 -46 -116 -46q-105 0 -166.5 71.5t-61.5 177.5zM214 266q0 -35 19 -56.5t52 -21.5q34 0 52.5 21.5t18.5 56.5q0 39 -18.5 63t-52.5 24q-33 0 -52 -24t-19 -63z" />
    <glyph glyph-name="Hcircumflex" unicode="&#x124;" horiz-adv-x="685" 
d="M55 0v648h190v-242h195v242h190v-648h-190v245h-195v-245h-190zM124 681l132 179h173l132 -179h-127l-92 98l-90 -98h-128z" />
    <glyph glyph-name="hcircumflex" unicode="&#x125;" horiz-adv-x="592" 
d="M234 658v-193q52 56 144 56q47 0 81.5 -15.5t53 -37.5t29 -56t13 -62t2.5 -65v-285h-182v262q0 89 -57 89q-39 0 -61.5 -30.5t-22.5 -79.5v-241h-182v658h182zM-72 681l132 179h173l132 -179h-127l-92 98l-90 -98h-128z" />
    <glyph glyph-name="Hbar" unicode="&#x126;" horiz-adv-x="685" 
d="M55 0v470h-40v114h40v64h190v-64h195v64h190v-64h40v-114h-40v-470h-190v245h-195v-245h-190zM245 406h195v64h-195v-64z" />
    <glyph glyph-name="hbar" unicode="&#x127;" horiz-adv-x="592" 
d="M52 0v548h-53v79h53v31h182v-31h99v-79h-99v-93q55 66 144 66q48 0 82 -13.5t52.5 -33t29 -53t13 -63t2.5 -73.5v-285h-182v258q0 48 -13 70.5t-48 22.5q-39 0 -59.5 -33t-20.5 -83v-235h-182z" />
    <glyph glyph-name="Itilde" unicode="&#x128;" horiz-adv-x="300" 
d="M-46 678q0 73 29.5 115t76.5 42q33 0 67 -14.5t58 -29t34 -14.5q22 0 29 15t7 43h90q0 -73 -29.5 -115t-76.5 -42q-33 0 -67 14.5t-58 29t-34 14.5q-22 0 -29 -15t-7 -43h-90zM55 0v648h190v-648h-190z" />
    <glyph glyph-name="itilde" unicode="&#x129;" horiz-adv-x="262" 
d="M-64 561q0 73 29.5 115t76.5 42q33 0 67 -14.5t58 -29t34 -14.5q22 0 29 15t7 43h90q0 -73 -29.5 -115t-76.5 -42q-33 0 -67 14.5t-58 29t-34 14.5q-22 0 -29 -15t-7 -43h-90zM40 0v511h182v-511h-182z" />
    <glyph glyph-name="Imacron" unicode="&#x12a;" horiz-adv-x="300" 
d="M17 713v105h266v-105h-266zM55 0v648h190v-648h-190z" />
    <glyph glyph-name="imacron" unicode="&#x12b;" horiz-adv-x="262" 
d="M-2 579v105h266v-105h-266zM40 0v511h182v-511h-182z" />
    <glyph glyph-name="Ibreve" unicode="&#x12c;" horiz-adv-x="300" 
d="M150 677q-66 0 -107 45t-41 108h91q0 -22 16 -37.5t41 -15.5q24 0 39.5 15.5t15.5 37.5h93q0 -63 -41 -108t-107 -45zM55 0v648h190v-648h-190z" />
    <glyph glyph-name="ibreve" unicode="&#x12d;" horiz-adv-x="262" 
d="M131 557q-66 0 -107 45t-41 108h91q0 -22 16 -37.5t41 -15.5q24 0 39.5 15.5t15.5 37.5h93q0 -63 -41 -108t-107 -45zM40 0v511h182v-511h-182z" />
    <glyph glyph-name="Iogonek" unicode="&#x12e;" horiz-adv-x="300" 
d="M9 -128q0 69 46 133v643h190v-648h-107q-30 -30 -30 -70q0 -23 14.5 -37.5t42.5 -14.5q7 0 16.5 2.5t10.5 2.5l21 -67q-49 -36 -110 -36q-38 0 -66 24.5t-28 67.5z" />
    <glyph glyph-name="iogonek" unicode="&#x12f;" horiz-adv-x="262" 
d="M-6 -128q0 69 46 133v506h182v-511h-99q-30 -30 -30 -70q0 -23 14.5 -37.5t42.5 -14.5q7 0 16.5 2.5t10.5 2.5l21 -67q-49 -36 -110 -36q-38 0 -66 24.5t-28 67.5zM27 653q0 43 30.5 73.5t72.5 30.5q43 0 74 -30.5t31 -73.5q0 -42 -31 -72.5t-74 -30.5q-42 0 -72.5 30.5
t-30.5 72.5z" />
    <glyph glyph-name="Idotaccent" unicode="&#x130;" horiz-adv-x="300" 
d="M58 781q0 37 26.5 63.5t64.5 26.5t64.5 -26.5t26.5 -63.5t-26.5 -63.5t-64.5 -26.5t-64.5 26.5t-26.5 63.5zM55 0v648h190v-648h-190z" />
    <glyph glyph-name="dotlessi" unicode="&#x131;" horiz-adv-x="262" 
d="M40 0v511h182v-511h-182z" />
    <glyph glyph-name="Jcircumflex" unicode="&#x134;" horiz-adv-x="624" 
d="M22 135l126 105q22 -46 52.5 -63t76.5 -17q50 0 77 29t27 82v377h190v-371q0 -140 -76 -214.5t-219 -74.5q-81 0 -149 35t-105 112zM258 681l132 179h173l132 -179h-127l-92 98l-90 -98h-128z" />
    <glyph glyph-name="jcircumflex" unicode="&#x135;" horiz-adv-x="262" 
d="M21 -194l-66 123q44 21 64.5 62t20.5 87v433h182v-404q0 -115 -49.5 -185.5t-151.5 -115.5zM-87 575l132 179h173l132 -179h-127l-92 98l-90 -98h-128z" />
    <glyph glyph-name="Kcommaaccent" unicode="&#x136;" horiz-adv-x="690" 
d="M55 0v648h190v-304l185 304h219l-200 -282l233 -366h-222l-123 217l-92 -121v-96h-190zM224 -235q56 52 56 107q0 34 -26 60l108 38q33 -39 33 -78q0 -64 -80 -127h-91z" />
    <glyph glyph-name="kcommaaccent" unicode="&#x137;" horiz-adv-x="598" 
d="M40 0v658h182v-303l124 156h217l-194 -213l223 -298h-216l-124 178l-30 -36v-142h-182zM182 -235q56 52 56 107q0 34 -26 60l108 38q33 -39 33 -78q0 -64 -80 -127h-91z" />
    <glyph glyph-name="Lacute" unicode="&#x139;" horiz-adv-x="615" 
d="M55 0v648h190v-487h345v-161h-535zM57 681l105 179h175l-145 -179h-135z" />
    <glyph glyph-name="lacute" unicode="&#x13a;" horiz-adv-x="262" 
d="M40 0v658h182v-658h-182zM35 741l105 179h175l-145 -179h-135z" />
    <glyph glyph-name="Lcommaaccent" unicode="&#x13b;" horiz-adv-x="615" 
d="M262 -235q56 52 56 107q0 34 -26 60l108 38q33 -39 33 -78q0 -64 -80 -127h-91zM55 0v648h190v-487h345v-161h-535z" />
    <glyph glyph-name="lcommaaccent" unicode="&#x13c;" horiz-adv-x="262" 
d="M44 -235q56 52 56 107q0 34 -26 60l108 38q33 -39 33 -78q0 -64 -80 -127h-91zM40 0v658h182v-658h-182z" />
    <glyph glyph-name="Lcaron" unicode="&#x13d;" horiz-adv-x="615" 
d="M55 0v648h190v-487h345v-161h-535zM306 441q61 61 61 122q0 37 -28 68l116 43q36 -45 36 -89q0 -72 -87 -144h-98z" />
    <glyph glyph-name="lcaron" unicode="&#x13e;" horiz-adv-x="262" 
d="M231 471q56 52 56 107q0 34 -26 60l108 38q33 -39 33 -78q0 -64 -80 -127h-91zM40 0v658h182v-658h-182z" />
    <glyph glyph-name="Lslash" unicode="&#x141;" horiz-adv-x="615" 
d="M55 0v282l-76 -31v114l76 31v252h190v-170l149 65v-115l-149 -65v-202h345v-161h-535z" />
    <glyph glyph-name="lslash" unicode="&#x142;" horiz-adv-x="262" 
d="M40 0v292l-55 -25v114l55 25v252h182v-173l54 26v-115l-54 -25v-371h-182z" />
    <glyph glyph-name="Nacute" unicode="&#x143;" horiz-adv-x="700" 
d="M55 0v648h165l235 -327v327h190v-648h-165l-235 322v-322h-190zM248 681l105 179h175l-145 -179h-135z" />
    <glyph glyph-name="nacute" unicode="&#x144;" horiz-adv-x="580" 
d="M40 0v511h172v-56q57 66 154 66q47 0 81.5 -15.5t53 -37.5t29 -56t13 -62t2.5 -65v-285h-182v262q0 89 -57 89q-39 0 -61.5 -30.5t-22.5 -79.5v-241h-182zM179 570l105 179h175l-145 -179h-135z" />
    <glyph glyph-name="Ncommaaccent" unicode="&#x145;" horiz-adv-x="700" 
d="M55 0v648h165l235 -327v327h190v-648h-165l-235 322v-322h-190zM272 -235q56 52 56 107q0 34 -26 60l108 38q33 -39 33 -78q0 -64 -80 -127h-91z" />
    <glyph glyph-name="ncommaaccent" unicode="&#x146;" horiz-adv-x="580" 
d="M40 0v511h172v-56q57 66 154 66q47 0 81.5 -15.5t53 -37.5t29 -56t13 -62t2.5 -65v-285h-182v262q0 89 -57 89q-39 0 -61.5 -30.5t-22.5 -79.5v-241h-182zM207 -235q56 52 56 107q0 34 -26 60l108 38q33 -39 33 -78q0 -64 -80 -127h-91z" />
    <glyph glyph-name="Ncaron" unicode="&#x147;" horiz-adv-x="700" 
d="M55 0v648h165l235 -327v327h190v-648h-165l-235 322v-322h-190zM264 681l-132 179h127l91 -98l91 98h128l-132 -179h-173z" />
    <glyph glyph-name="ncaron" unicode="&#x148;" horiz-adv-x="580" 
d="M40 0v511h172v-56q57 66 154 66q47 0 81.5 -15.5t53 -37.5t29 -56t13 -62t2.5 -65v-285h-182v262q0 89 -57 89q-39 0 -61.5 -30.5t-22.5 -79.5v-241h-182zM208 575l-132 179h127l91 -98l91 98h128l-132 -179h-173z" />
    <glyph glyph-name="Eng" unicode="&#x14a;" horiz-adv-x="700" 
d="M55 0v648h165l235 -327v327h190v-641q0 -68 -62.5 -135t-169.5 -89l-44 129q42 6 73.5 35.5t37.5 52.5l-235 322v-322h-190z" />
    <glyph glyph-name="eng" unicode="&#x14b;" horiz-adv-x="604" 
d="M375 107v155q0 89 -57 89q-39 0 -61.5 -30.5t-22.5 -79.5v-241h-182v511h172v-56q57 66 154 66q47 0 81.5 -15.5t53 -37.5t29 -56t13 -62t2.5 -65v-183q0 -111 -70.5 -197t-177.5 -115l-42 119q108 54 108 198z" />
    <glyph glyph-name="Omacron" unicode="&#x14c;" horiz-adv-x="765" 
d="M233 324q0 -72 42 -118t107 -46q66 0 108 46t42 118q0 71 -42 116.5t-108 45.5q-62 0 -105.5 -46t-43.5 -116zM35 324q0 141 97 237.5t250 96.5t250.5 -96.5t97.5 -237.5q0 -143 -97 -239.5t-251 -96.5q-153 0 -250 96.5t-97 239.5zM249 713v105h266v-105h-266z" />
    <glyph glyph-name="omacron" unicode="&#x14d;" horiz-adv-x="612" 
d="M30 255q0 112 79.5 189t196.5 77t196.5 -77t79.5 -189q0 -111 -79.5 -188t-196.5 -77t-196.5 77t-79.5 188zM214 255q0 -46 25.5 -75.5t66.5 -29.5t66.5 29.5t25.5 75.5t-26 76t-66 30t-66 -30t-26 -76zM173 579v105h266v-105h-266z" />
    <glyph glyph-name="Obreve" unicode="&#x14e;" horiz-adv-x="765" 
d="M233 324q0 -72 42 -118t107 -46q66 0 108 46t42 118q0 71 -42 116.5t-108 45.5q-62 0 -105.5 -46t-43.5 -116zM35 324q0 141 97 237.5t250 96.5t250.5 -96.5t97.5 -237.5q0 -143 -97 -239.5t-251 -96.5q-153 0 -250 96.5t-97 239.5zM382 677q-66 0 -107 45t-41 108h91
q0 -22 16 -37.5t41 -15.5q24 0 39.5 15.5t15.5 37.5h93q0 -63 -41 -108t-107 -45z" />
    <glyph glyph-name="obreve" unicode="&#x14f;" horiz-adv-x="612" 
d="M30 255q0 112 79.5 189t196.5 77t196.5 -77t79.5 -189q0 -111 -79.5 -188t-196.5 -77t-196.5 77t-79.5 188zM214 255q0 -46 25.5 -75.5t66.5 -29.5t66.5 29.5t25.5 75.5t-26 76t-66 30t-66 -30t-26 -76zM306 557q-66 0 -107 45t-41 108h91q0 -22 16 -37.5t41 -15.5
q24 0 39.5 15.5t15.5 37.5h93q0 -63 -41 -108t-107 -45z" />
    <glyph glyph-name="Ohungarumlaut" unicode="&#x150;" horiz-adv-x="765" 
d="M233 324q0 -72 42 -118t107 -46q66 0 108 46t42 118q0 71 -42 116.5t-108 45.5q-62 0 -105.5 -46t-43.5 -116zM35 324q0 141 97 237.5t250 96.5t250.5 -96.5t97.5 -237.5q0 -143 -97 -239.5t-251 -96.5q-153 0 -250 96.5t-97 239.5zM211 681l78 152h173l-134 -152h-117z
M416 681l78 152h173l-134 -152h-117z" />
    <glyph glyph-name="ohungarumlaut" unicode="&#x151;" horiz-adv-x="612" 
d="M30 255q0 112 79.5 189t196.5 77t196.5 -77t79.5 -189q0 -111 -79.5 -188t-196.5 -77t-196.5 77t-79.5 188zM214 255q0 -46 25.5 -75.5t66.5 -29.5t66.5 29.5t25.5 75.5t-26 76t-66 30t-66 -30t-26 -76zM112 568l78 152h173l-134 -152h-117zM317 568l78 152h173
l-134 -152h-117z" />
    <glyph glyph-name="OE" unicode="&#x152;" horiz-adv-x="1056" 
d="M35 324q0 142 93 238t242 96q87 0 152 -33v23h499v-161h-319v-79h304v-159h-304v-88h333v-161h-513v22q-52 -34 -152 -34q-148 0 -241.5 96.5t-93.5 239.5zM233 324q0 -72 42 -118t107 -46q49 0 86 26t54 73v129q-18 47 -55.5 72.5t-84.5 25.5q-62 0 -105.5 -46
t-43.5 -116z" />
    <glyph glyph-name="oe" unicode="&#x153;" horiz-adv-x="940" 
d="M856 43q-78 -53 -183 -53q-119 0 -194 75q-73 -75 -183 -75q-113 0 -189.5 77t-76.5 188q0 112 76.5 189t189.5 77q108 0 183 -75q72 75 173 75q108 0 182 -77.5t74 -188.5l-4 -59h-339q19 -65 110 -65q59 0 113 26zM214 255q0 -46 25.5 -75.5t66.5 -29.5t66.5 29.5
t25.5 75.5t-26 76t-66 30t-66 -30t-26 -76zM652 378q-34 0 -59 -22t-33 -57h182q-4 35 -29.5 57t-60.5 22z" />
    <glyph glyph-name="Racute" unicode="&#x154;" horiz-adv-x="677" 
d="M55 0v648h286q144 0 222.5 -72.5t78.5 -183.5q0 -58 -26 -111.5t-76 -87.5l121 -193h-217l-74 137q-40 -1 -125 -1v-136h-190zM245 297h98q43 0 70.5 27.5t27.5 67.5t-27.5 67.5t-69.5 27.5h-99v-190zM207 681l105 179h175l-145 -179h-135z" />
    <glyph glyph-name="racute" unicode="&#x155;" horiz-adv-x="404" 
d="M40 0v511h177v-91q4 28 46.5 64.5t120.5 36.5v-198q-94 0 -128 -36.5t-34 -114.5v-172h-182zM102 570l105 179h175l-145 -179h-135z" />
    <glyph glyph-name="Rcommaaccent" unicode="&#x156;" horiz-adv-x="677" 
d="M55 0v648h286q144 0 222.5 -72.5t78.5 -183.5q0 -58 -26 -111.5t-76 -87.5l121 -193h-217l-74 137q-40 -1 -125 -1v-136h-190zM245 297h98q43 0 70.5 27.5t27.5 67.5t-27.5 67.5t-69.5 27.5h-99v-190zM232 -235q56 52 56 107q0 34 -26 60l108 38q33 -39 33 -78
q0 -64 -80 -127h-91z" />
    <glyph glyph-name="rcommaaccent" unicode="&#x157;" horiz-adv-x="404" 
d="M40 0v511h177v-91q4 28 46.5 64.5t120.5 36.5v-198q-94 0 -128 -36.5t-34 -114.5v-172h-182zM47 -235q56 52 56 107q0 34 -26 60l108 38q33 -39 33 -78q0 -64 -80 -127h-91z" />
    <glyph glyph-name="Rcaron" unicode="&#x158;" horiz-adv-x="677" 
d="M55 0v648h286q144 0 222.5 -72.5t78.5 -183.5q0 -58 -26 -111.5t-76 -87.5l121 -193h-217l-74 137q-40 -1 -125 -1v-136h-190zM245 297h98q43 0 70.5 27.5t27.5 67.5t-27.5 67.5t-69.5 27.5h-99v-190zM236 681l-132 179h127l91 -98l91 98h128l-132 -179h-173z" />
    <glyph glyph-name="rcaron" unicode="&#x159;" horiz-adv-x="404" 
d="M40 0v511h177v-91q4 28 46.5 64.5t120.5 36.5v-198q-94 0 -128 -36.5t-34 -114.5v-172h-182zM126 575l-132 179h127l91 -98l91 98h128l-132 -179h-173z" />
    <glyph glyph-name="Sacute" unicode="&#x15a;" horiz-adv-x="619" 
d="M31 66l62 148q33 -19 55 -29t65 -20t91 -10q10 0 21 1.5t25 5.5t23 12.5t9 20.5q0 6 -2 11.5t-7 9.5t-9.5 7t-13.5 5.5t-14 4t-16.5 4t-15.5 3.5q-43 10 -75.5 20t-68 28t-59 40.5t-38.5 57t-15 76.5q0 96 74 146t182 50q139 0 251 -66l-64 -147q-28 19 -83.5 33
t-103.5 14q-58 0 -58 -30q0 -27 58 -41q29 -6 46.5 -10.5t50 -14.5t53.5 -20.5t47.5 -28.5t41.5 -38.5t26 -50t11 -63.5q0 -70 -42 -118.5t-102.5 -68.5t-131.5 -20q-63 0 -117 11.5t-80.5 24t-50 27t-25.5 15.5zM215 681l105 179h175l-145 -179h-135z" />
    <glyph glyph-name="sacute" unicode="&#x15b;" horiz-adv-x="482" 
d="M16 51l58 128q33 -22 66.5 -32.5t88.5 -10.5q4 0 14 1.5t23 7t13 14.5q0 5 -3 8t-10 6t-12 4.5t-17.5 4l-17.5 3.5q-92 22 -142.5 61t-50.5 105q0 80 61.5 125t148.5 45q117 0 207 -48l-54 -122q-77 30 -147 30q-32 0 -32 -16q0 -12 26 -21t63 -19t74.5 -25.5t63.5 -50
t26 -83.5q0 -48 -24 -84.5t-62 -55.5t-75.5 -27.5t-73.5 -8.5q-142 0 -212 61zM148 570l105 179h175l-145 -179h-135z" />
    <glyph glyph-name="Scircumflex" unicode="&#x15c;" horiz-adv-x="619" 
d="M31 66l62 148q33 -19 55 -29t65 -20t91 -10q10 0 21 1.5t25 5.5t23 12.5t9 20.5q0 6 -2 11.5t-7 9.5t-9.5 7t-13.5 5.5t-14 4t-16.5 4t-15.5 3.5q-43 10 -75.5 20t-68 28t-59 40.5t-38.5 57t-15 76.5q0 96 74 146t182 50q139 0 251 -66l-64 -147q-28 19 -83.5 33
t-103.5 14q-58 0 -58 -30q0 -27 58 -41q29 -6 46.5 -10.5t50 -14.5t53.5 -20.5t47.5 -28.5t41.5 -38.5t26 -50t11 -63.5q0 -70 -42 -118.5t-102.5 -68.5t-131.5 -20q-63 0 -117 11.5t-80.5 24t-50 27t-25.5 15.5zM85 681l132 179h173l132 -179h-127l-92 98l-90 -98h-128z
" />
    <glyph glyph-name="scircumflex" unicode="&#x15d;" horiz-adv-x="482" 
d="M16 51l58 128q33 -22 66.5 -32.5t88.5 -10.5q4 0 14 1.5t23 7t13 14.5q0 5 -3 8t-10 6t-12 4.5t-17.5 4l-17.5 3.5q-92 22 -142.5 61t-50.5 105q0 80 61.5 125t148.5 45q117 0 207 -48l-54 -122q-77 30 -147 30q-32 0 -32 -16q0 -12 26 -21t63 -19t74.5 -25.5t63.5 -50
t26 -83.5q0 -48 -24 -84.5t-62 -55.5t-75.5 -27.5t-73.5 -8.5q-142 0 -212 61zM32 575l132 179h173l132 -179h-127l-92 98l-90 -98h-128z" />
    <glyph glyph-name="Scedilla" unicode="&#x15e;" horiz-adv-x="619" 
d="M166 -193l38 64q38 -21 74 -21q22 0 34.5 10.5t12.5 26.5q0 18 -15 18q-14 0 -25 -27l-86 25l52 87q-49 4 -92 16t-65 23.5t-41 23.5t-22 13l62 148q33 -19 55 -29t65 -20t91 -10q10 0 21 1.5t25 5.5t23 12.5t9 20.5q0 6 -2 11.5t-7 9.5t-9.5 7t-13.5 5.5t-14 4t-16.5 4
t-15.5 3.5q-43 10 -75.5 20t-68 28t-59 40.5t-38.5 57t-15 76.5q0 96 74 146t182 50q139 0 251 -66l-64 -147q-28 19 -83.5 33t-103.5 14q-58 0 -58 -30q0 -27 58 -41q29 -6 46.5 -10.5t50 -14.5t53.5 -20.5t47.5 -28.5t41.5 -38.5t26 -50t11 -63.5q0 -92 -65.5 -143
t-163.5 -61l-13 -23h4q44 0 66 -25t22 -56q0 -41 -35.5 -76t-108.5 -35q-75 0 -120 31z" />
    <glyph glyph-name="scedilla" unicode="&#x15f;" horiz-adv-x="482" 
d="M100 -193l38 64q38 -21 74 -21q22 0 34.5 10.5t12.5 26.5q0 18 -15 18q-14 0 -25 -27l-86 25l53 89q-113 9 -170 59l58 128q33 -22 66.5 -32.5t88.5 -10.5q4 0 14 1.5t23 7t13 14.5q0 5 -3 8t-10 6t-12 4.5t-17.5 4l-17.5 3.5q-92 22 -142.5 61t-50.5 105q0 80 61.5 125
t148.5 45q117 0 207 -48l-54 -122q-77 30 -147 30q-32 0 -32 -16q0 -12 26 -21t63 -19t74.5 -25.5t63.5 -50t26 -83.5q0 -39 -15.5 -70t-41.5 -51t-55.5 -31.5t-62.5 -17.5l-16 -28h4q44 0 66 -25t22 -56q0 -41 -35.5 -76t-108.5 -35q-75 0 -120 31z" />
    <glyph glyph-name="Scaron" unicode="&#x160;" horiz-adv-x="619" 
d="M31 66l62 148q33 -19 55 -29t65 -20t91 -10q10 0 21 1.5t25 5.5t23 12.5t9 20.5q0 6 -2 11.5t-7 9.5t-9.5 7t-13.5 5.5t-14 4t-16.5 4t-15.5 3.5q-43 10 -75.5 20t-68 28t-59 40.5t-38.5 57t-15 76.5q0 96 74 146t182 50q139 0 251 -66l-64 -147q-28 19 -83.5 33
t-103.5 14q-58 0 -58 -30q0 -27 58 -41q29 -6 46.5 -10.5t50 -14.5t53.5 -20.5t47.5 -28.5t41.5 -38.5t26 -50t11 -63.5q0 -70 -42 -118.5t-102.5 -68.5t-131.5 -20q-63 0 -117 11.5t-80.5 24t-50 27t-25.5 15.5zM218 681l-132 179h127l91 -98l91 98h128l-132 -179h-173z
" />
    <glyph glyph-name="scaron" unicode="&#x161;" horiz-adv-x="482" 
d="M16 51l58 128q33 -22 66.5 -32.5t88.5 -10.5q4 0 14 1.5t23 7t13 14.5q0 5 -3 8t-10 6t-12 4.5t-17.5 4l-17.5 3.5q-92 22 -142.5 61t-50.5 105q0 80 61.5 125t148.5 45q117 0 207 -48l-54 -122q-77 30 -147 30q-32 0 -32 -16q0 -12 26 -21t63 -19t74.5 -25.5t63.5 -50
t26 -83.5q0 -48 -24 -84.5t-62 -55.5t-75.5 -27.5t-73.5 -8.5q-142 0 -212 61zM166 575l-132 179h127l91 -98l91 98h128l-132 -179h-173z" />
    <glyph glyph-name="Tcommaaccent" unicode="&#x162;" horiz-adv-x="636" 
d="M223 0v487h-203v161h596v-161h-203v-487h-190zM227 -235q56 52 56 107q0 34 -26 60l108 38q33 -39 33 -78q0 -64 -80 -127h-91z" />
    <glyph glyph-name="tcommaaccent" unicode="&#x163;" horiz-adv-x="395" 
d="M82 165v202h-75v144h75v92l182 45v-137h113v-144h-113v-188q0 -32 28 -32q23 0 46 16l49 -133q-57 -40 -143 -40q-75 0 -118.5 46t-43.5 129zM127 -235q56 52 56 107q0 34 -26 60l108 38q33 -39 33 -78q0 -64 -80 -127h-91z" />
    <glyph glyph-name="Tcaron" unicode="&#x164;" horiz-adv-x="636" 
d="M223 0v487h-203v161h596v-161h-203v-487h-190zM232 681l-132 179h127l91 -98l91 98h128l-132 -179h-173z" />
    <glyph glyph-name="tcaron" unicode="&#x165;" horiz-adv-x="395" 
d="M82 165v202h-75v144h75v92l182 45v-137h113v-144h-113v-188q0 -32 28 -32q23 0 46 16l49 -133q-57 -40 -143 -40q-75 0 -118.5 46t-43.5 129zM277 546q53 38 53 81q0 25 -25 46l102 29q31 -31 31 -59q0 -48 -75 -97h-86z" />
    <glyph glyph-name="Tbar" unicode="&#x166;" horiz-adv-x="636" 
d="M223 0v313h-128v114h128v60h-203v161h596v-161h-203v-60h128v-114h-128v-313h-190z" />
    <glyph glyph-name="tbar" unicode="&#x167;" horiz-adv-x="395" 
d="M21 304h61v63h-75v144h75v92l182 45v-137h113v-144h-113v-63h72v-79h-72v-46q0 -32 28 -32q23 0 46 16l49 -133q-57 -40 -143 -40q-75 0 -118.5 46t-43.5 129v60h-61v79z" />
    <glyph glyph-name="Utilde" unicode="&#x168;" horiz-adv-x="684" 
d="M148 678q0 73 29.5 115t76.5 42q33 0 67 -14.5t58 -29t34 -14.5q22 0 29 15t7 43h90q0 -73 -29.5 -115t-76.5 -42q-33 0 -67 14.5t-58 29t-34 14.5q-22 0 -29 -15t-7 -43h-90zM342 160q44 0 71.5 26.5t27.5 81.5v380h190v-391q0 -129 -80.5 -199t-208.5 -70t-208.5 70
t-80.5 199v391h190v-380q0 -55 27.5 -81.5t71.5 -26.5z" />
    <glyph glyph-name="utilde" unicode="&#x169;" horiz-adv-x="580" 
d="M540 511v-511h-172v56q-31 -40 -66 -53t-81 -13q-56 0 -94 18.5t-57 53.5t-27 74t-8 90v285h182v-262q0 -46 15.5 -67.5t50.5 -21.5q75 0 75 110v241h182zM93 561q0 73 29.5 115t76.5 42q33 0 67 -14.5t58 -29t34 -14.5q22 0 29 15t7 43h90q0 -73 -29.5 -115t-76.5 -42
q-33 0 -67 14.5t-58 29t-34 14.5q-22 0 -29 -15t-7 -43h-90z" />
    <glyph glyph-name="Umacron" unicode="&#x16a;" horiz-adv-x="684" 
d="M342 160q44 0 71.5 26.5t27.5 81.5v380h190v-391q0 -129 -80.5 -199t-208.5 -70t-208.5 70t-80.5 199v391h190v-380q0 -55 27.5 -81.5t71.5 -26.5zM211 713v105h266v-105h-266z" />
    <glyph glyph-name="umacron" unicode="&#x16b;" horiz-adv-x="580" 
d="M540 511v-511h-172v56q-31 -40 -66 -53t-81 -13q-56 0 -94 18.5t-57 53.5t-27 74t-8 90v285h182v-262q0 -46 15.5 -67.5t50.5 -21.5q75 0 75 110v241h182zM155 579v105h266v-105h-266z" />
    <glyph glyph-name="Ubreve" unicode="&#x16c;" horiz-adv-x="684" 
d="M342 160q44 0 71.5 26.5t27.5 81.5v380h190v-391q0 -129 -80.5 -199t-208.5 -70t-208.5 70t-80.5 199v391h190v-380q0 -55 27.5 -81.5t71.5 -26.5zM344 677q-66 0 -107 45t-41 108h91q0 -22 16 -37.5t41 -15.5q24 0 39.5 15.5t15.5 37.5h93q0 -63 -41 -108t-107 -45z" />
    <glyph glyph-name="ubreve" unicode="&#x16d;" horiz-adv-x="580" 
d="M540 511v-511h-172v56q-31 -40 -66 -53t-81 -13q-56 0 -94 18.5t-57 53.5t-27 74t-8 90v285h182v-262q0 -46 15.5 -67.5t50.5 -21.5q75 0 75 110v241h182zM288 557q-66 0 -107 45t-41 108h91q0 -22 16 -37.5t41 -15.5q24 0 39.5 15.5t15.5 37.5h93q0 -63 -41 -108
t-107 -45z" />
    <glyph glyph-name="Uring" unicode="&#x16e;" horiz-adv-x="684" 
d="M227 780q0 49 34 83t83 34t83 -34t34 -83t-34 -83t-83 -34t-83 34t-34 83zM303 780q0 -18 12 -31t29 -13t29 13t12 31t-12 30.5t-29 12.5t-29 -12.5t-12 -30.5zM342 160q44 0 71.5 26.5t27.5 81.5v380h190v-391q0 -129 -80.5 -199t-208.5 -70t-208.5 70t-80.5 199v391
h190v-380q0 -55 27.5 -81.5t71.5 -26.5z" />
    <glyph glyph-name="uring" unicode="&#x16f;" horiz-adv-x="580" 
d="M540 511v-511h-172v56q-31 -40 -66 -53t-81 -13q-56 0 -94 18.5t-57 53.5t-27 74t-8 90v285h182v-262q0 -46 15.5 -67.5t50.5 -21.5q75 0 75 110v241h182zM171 653q0 49 34 83t83 34t83 -34t34 -83t-34 -83t-83 -34t-83 34t-34 83zM247 653q0 -18 12 -31t29 -13t29 13
t12 31t-12 30.5t-29 12.5t-29 -12.5t-12 -30.5z" />
    <glyph glyph-name="Uhungarumlaut" unicode="&#x170;" horiz-adv-x="684" 
d="M342 160q44 0 71.5 26.5t27.5 81.5v380h190v-391q0 -129 -80.5 -199t-208.5 -70t-208.5 70t-80.5 199v391h190v-380q0 -55 27.5 -81.5t71.5 -26.5zM160 684l78 152h173l-134 -152h-117zM365 684l78 152h173l-134 -152h-117z" />
    <glyph glyph-name="uhungarumlaut" unicode="&#x171;" horiz-adv-x="580" 
d="M540 511v-511h-172v56q-31 -40 -66 -53t-81 -13q-56 0 -94 18.5t-57 53.5t-27 74t-8 90v285h182v-262q0 -46 15.5 -67.5t50.5 -21.5q75 0 75 110v241h182zM88 568l78 152h173l-134 -152h-117zM293 568l78 152h173l-134 -152h-117z" />
    <glyph glyph-name="Uogonek" unicode="&#x172;" horiz-adv-x="684" 
d="M294 -128q0 58 35 116q-123 4 -199.5 73.5t-76.5 195.5v391h190v-380q0 -55 27.5 -81.5t71.5 -26.5t71.5 26.5t27.5 81.5v380h190v-391q0 -108 -57.5 -175t-154.5 -86q-26 -29 -26 -66q0 -23 14.5 -37.5t42.5 -14.5q7 0 16.5 2.5t10.5 2.5l21 -67q-49 -36 -110 -36
q-38 0 -66 24.5t-28 67.5z" />
    <glyph glyph-name="uogonek" unicode="&#x173;" horiz-adv-x="580" 
d="M322 -128q0 69 46 133v51q-31 -40 -66 -53t-81 -13q-56 0 -94 18.5t-57 53.5t-27 74t-8 90v285h182v-262q0 -46 15.5 -67.5t50.5 -21.5q75 0 75 110v241h182v-511h-89q-30 -30 -30 -70q0 -23 14.5 -37.5t42.5 -14.5q7 0 16.5 2.5t10.5 2.5l21 -67q-49 -36 -110 -36
q-38 0 -66 24.5t-28 67.5z" />
    <glyph glyph-name="Wcircumflex" unicode="&#x174;" horiz-adv-x="949" 
d="M172 0l-164 648h195l80 -413l97 413h189l96 -413l89 413h187l-164 -648h-200l-103 411l-103 -411h-199zM256 681l132 179h173l132 -179h-127l-92 98l-90 -98h-128z" />
    <glyph glyph-name="wcircumflex" unicode="&#x175;" horiz-adv-x="754" 
d="M287 511h180l43 -298l61 298h177l-154 -511h-166l-51 298l-51 -298h-166l-154 511h177l61 -298zM159 575l132 179h173l132 -179h-127l-92 98l-90 -98h-128z" />
    <glyph glyph-name="Ycircumflex" unicode="&#x176;" horiz-adv-x="661" 
d="M237 0v281l-229 367h217l107 -201l104 201h217l-226 -367v-281h-190zM114 681l132 179h173l132 -179h-127l-92 98l-90 -98h-128z" />
    <glyph glyph-name="ycircumflex" unicode="&#x177;" horiz-adv-x="560" 
d="M100 -147v161q69 0 89 35l15 28l-198 434h180l99 -262l89 262h180l-214 -508q-21 -50 -51 -82.5t-66 -46t-62.5 -17.5t-60.5 -4zM67 575l132 179h173l132 -179h-127l-92 98l-90 -98h-128z" />
    <glyph glyph-name="Ydieresis" unicode="&#x178;" horiz-adv-x="661" 
d="M142 758q0 33 23.5 56t56.5 23t56.5 -23t23.5 -56t-23.5 -56t-56.5 -23t-56.5 23t-23.5 56zM363 758q0 33 23.5 56t56.5 23t56.5 -23t23.5 -56t-23.5 -56t-56.5 -23t-56.5 23t-23.5 56zM237 0v281l-229 367h217l107 -201l104 201h217l-226 -367v-281h-190z" />
    <glyph glyph-name="Zacute" unicode="&#x179;" horiz-adv-x="602" 
d="M25 0v136l287 351h-273v161h529v-138l-283 -349h292v-161h-552zM195 681l105 179h175l-145 -179h-135z" />
    <glyph glyph-name="zacute" unicode="&#x17a;" horiz-adv-x="461" 
d="M20 0v127l182 225h-174v159h406v-126l-188 -226h195v-159h-421zM126 570l105 179h175l-145 -179h-135z" />
    <glyph glyph-name="Zdotaccent" unicode="&#x17b;" horiz-adv-x="602" 
d="M25 0v136l287 351h-273v161h529v-138l-283 -349h292v-161h-552zM208 781q0 37 26.5 63.5t64.5 26.5t64.5 -26.5t26.5 -63.5t-26.5 -63.5t-64.5 -26.5t-64.5 26.5t-26.5 63.5z" />
    <glyph glyph-name="zdotaccent" unicode="&#x17c;" horiz-adv-x="461" 
d="M20 0v127l182 225h-174v159h406v-126l-188 -226h195v-159h-421zM139 633q0 37 26.5 63.5t64.5 26.5t64.5 -26.5t26.5 -63.5t-26.5 -63.5t-64.5 -26.5t-64.5 26.5t-26.5 63.5z" />
    <glyph glyph-name="Zcaron" unicode="&#x17d;" horiz-adv-x="602" 
d="M25 0v136l287 351h-273v161h529v-138l-283 -349h292v-161h-552zM215 681l-132 179h127l91 -98l91 98h128l-132 -179h-173z" />
    <glyph glyph-name="zcaron" unicode="&#x17e;" horiz-adv-x="477" 
d="M26 0v127l182 225h-174v159h406v-126l-188 -226h195v-159h-421zM152 575l-132 179h127l91 -98l91 98h128l-132 -179h-173z" />
    <glyph glyph-name="florin" unicode="&#x192;" 
d="M487 319h-102l-58 -247q-23 -99 -80.5 -149t-127.5 -50q-97 0 -156 81l90 107q20 -25 42 -25q41 0 54 54l55 229h-57l30 115h54l18 72q36 152 162 152q42 0 82 -13t59 -26l19 -13l-65 -114q-16 11 -42 11q-33 0 -47 -51l-5 -18h105z" />
    <glyph glyph-name="Aringacute" unicode="&#x1fa;" horiz-adv-x="736" 
d="M232 84l-30 -84h-194l262 648h196l262 -648h-194l-30 84h-272zM251 785q0 58 45 93l77 178h129l-96 -161q35 -11 57 -41.5t22 -68.5q0 -49 -34 -83t-83 -34t-83 34t-34 83zM283 230h170l-85 242zM327 785q0 -18 12 -31t29 -13t29 13t12 31t-12 30.5t-29 12.5t-29 -12.5
t-12 -30.5z" />
    <glyph glyph-name="aringacute" unicode="&#x1fb;" horiz-adv-x="600" 
d="M388 454v57h172v-511h-172v57q-17 -36 -57 -51.5t-79 -15.5q-104 0 -163 75t-59 190q0 116 59 191t163 75q39 0 79 -15.5t57 -51.5zM168 673q0 58 45 93l77 178h129l-96 -161q35 -11 57 -41.5t22 -68.5q0 -49 -34 -83t-83 -34t-83 34t-34 83zM215 255q0 -46 23 -75.5
t59 -29.5t59 29.5t23 75.5t-23 76t-59 30t-59 -30t-23 -76zM244 673q0 -18 12 -31t29 -13t29 13t12 31t-12 30.5t-29 12.5t-29 -12.5t-12 -30.5z" />
    <glyph glyph-name="AEacute" unicode="&#x1fc;" horiz-adv-x="999" 
d="M2 0l381 648h581v-161h-319v-79h304v-159h-304v-88h333v-161h-513v84h-210l-43 -84h-210zM330 230h135v261zM563 681l105 179h175l-145 -179h-135z" />
    <glyph glyph-name="aeacute" unicode="&#x1fd;" horiz-adv-x="916" 
d="M825 43q-78 -53 -183 -53q-61 0 -124 23.5t-99 63.5q-34 -41 -90 -63t-115 -22q-90 0 -137 41t-47 103q0 86 79 141t199 55h31q-15 44 -81 44q-26 0 -57 -6t-49 -12l-18 -7l-52 116q21 15 78.5 34.5t118.5 19.5q103 0 167 -65q64 65 175 65q108 0 182 -77.5t74 -188.5
l-4 -59h-339q19 -65 110 -65q59 0 113 26zM621 378q-34 0 -59 -22t-33 -57h182q-4 35 -29.5 57t-60.5 22zM198 160q0 -15 13.5 -23.5t32.5 -8.5q42 0 72.5 24.5t30.5 68.5q-69 0 -109 -18.5t-40 -42.5zM369 570l105 179h175l-145 -179h-135z" />
    <glyph glyph-name="Oslashacute" unicode="&#x1fe;" horiz-adv-x="765" 
d="M35 324q0 141 97 237.5t250 96.5q75 0 142 -27l55 91l62 -37l-53 -88q67 -45 104.5 -117t37.5 -156q0 -143 -97 -239.5t-251 -96.5q-78 0 -142 26l-53 -89l-62 37l51 86q-67 45 -104 117.5t-37 158.5zM233 324q0 -80 49 -126l163 274q-30 14 -63 14q-62 0 -105.5 -46
t-43.5 -116zM532 324q0 76 -48 122l-162 -274q27 -12 60 -12q66 0 108 46t42 118zM296 681l105 179h175l-145 -179h-135z" />
    <glyph glyph-name="oslashacute" unicode="&#x1ff;" horiz-adv-x="612" 
d="M30 255q0 111 81 188.5t195 77.5q55 0 104 -20l49 81l62 -37l-48 -79q51 -37 80 -92t29 -119q0 -110 -81 -187.5t-195 -77.5q-56 0 -107 20l-47 -77l-62 37l45 76q-49 37 -77 91.5t-28 117.5zM398 255q0 41 -22 71l-103 -170q15 -6 33 -6q41 0 66.5 29.5t25.5 75.5z
M214 255q0 -43 21 -70l103 170q-15 6 -32 6q-40 0 -66 -30t-26 -76zM205 570l105 179h175l-145 -179h-135z" />
    <glyph glyph-name="Scommaaccent" unicode="&#x218;" horiz-adv-x="619" 
d="M31 66l62 148q33 -19 55 -29t65 -20t91 -10q10 0 21 1.5t25 5.5t23 12.5t9 20.5q0 6 -2 11.5t-7 9.5t-9.5 7t-13.5 5.5t-14 4t-16.5 4t-15.5 3.5q-43 10 -75.5 20t-68 28t-59 40.5t-38.5 57t-15 76.5q0 96 74 146t182 50q139 0 251 -66l-64 -147q-28 19 -83.5 33
t-103.5 14q-58 0 -58 -30q0 -27 58 -41q29 -6 46.5 -10.5t50 -14.5t53.5 -20.5t47.5 -28.5t41.5 -38.5t26 -50t11 -63.5q0 -70 -42 -118.5t-102.5 -68.5t-131.5 -20q-63 0 -117 11.5t-80.5 24t-50 27t-25.5 15.5zM213 -235q56 52 56 107q0 34 -26 60l108 38q33 -39 33 -78
q0 -64 -80 -127h-91z" />
    <glyph glyph-name="scommaaccent" unicode="&#x219;" horiz-adv-x="482" 
d="M16 51l58 128q33 -22 66.5 -32.5t88.5 -10.5q4 0 14 1.5t23 7t13 14.5q0 5 -3 8t-10 6t-12 4.5t-17.5 4l-17.5 3.5q-92 22 -142.5 61t-50.5 105q0 80 61.5 125t148.5 45q117 0 207 -48l-54 -122q-77 30 -147 30q-32 0 -32 -16q0 -12 26 -21t63 -19t74.5 -25.5t63.5 -50
t26 -83.5q0 -48 -24 -84.5t-62 -55.5t-75.5 -27.5t-73.5 -8.5q-142 0 -212 61zM145 -235q56 52 56 107q0 34 -26 60l108 38q33 -39 33 -78q0 -64 -80 -127h-91z" />
    <glyph glyph-name="circumflex" unicode="&#x2c6;" horiz-adv-x="450" 
d="M5 575l132 179h173l132 -179h-127l-92 98l-90 -98h-128z" />
    <glyph glyph-name="caron" unicode="&#x2c7;" horiz-adv-x="450" 
d="M138 575l-132 179h127l91 -98l91 98h128l-132 -179h-173z" />
    <glyph glyph-name="breve" unicode="&#x2d8;" horiz-adv-x="450" 
d="M225 557q-66 0 -107 45t-41 108h91q0 -22 16 -37.5t41 -15.5q24 0 39.5 15.5t15.5 37.5h93q0 -63 -41 -108t-107 -45z" />
    <glyph glyph-name="dotaccent" unicode="&#x2d9;" horiz-adv-x="450" 
d="M132 633q0 37 26.5 63.5t64.5 26.5t64.5 -26.5t26.5 -63.5t-26.5 -63.5t-64.5 -26.5t-64.5 26.5t-26.5 63.5z" />
    <glyph glyph-name="ring" unicode="&#x2da;" horiz-adv-x="450" 
d="M108 653q0 49 34 83t83 34t83 -34t34 -83t-34 -83t-83 -34t-83 34t-34 83zM184 653q0 -18 12 -31t29 -13t29 13t12 31t-12 30.5t-29 12.5t-29 -12.5t-12 -30.5z" />
    <glyph glyph-name="ogonek" unicode="&#x2db;" horiz-adv-x="450" 
d="M123 -128q0 69 46 133h89q-36 -31 -36 -75q0 -23 14.5 -37.5t42.5 -14.5q7 0 16.5 2.5t10.5 2.5l21 -67q-49 -36 -110 -36q-38 0 -66 24.5t-28 67.5z" />
    <glyph glyph-name="tilde" unicode="&#x2dc;" horiz-adv-x="450" 
d="M28 561q0 73 29.5 115t76.5 42q33 0 67 -14.5t58 -29t34 -14.5q22 0 29 15t7 43h90q0 -73 -29.5 -115t-76.5 -42q-33 0 -67 14.5t-58 29t-34 14.5q-22 0 -29 -15t-7 -43h-90z" />
    <glyph glyph-name="hungarumlaut" unicode="&#x2dd;" horiz-adv-x="450" 
d="M-4 568l78 152h173l-134 -152h-117zM201 568l78 152h173l-134 -152h-117z" />
    <glyph glyph-name="pi" unicode="&#x3c0;" horiz-adv-x="749" 
d="M311 259h79q45 0 70 28t25 72q0 40 -26 69.5t-69 29.5h-79v-199zM40 323q0 139 97.5 237t234.5 98q138 0 236 -98t98 -237t-98 -237t-236 -98q-137 0 -234.5 98t-97.5 237zM113 323q0 -109 76 -186.5t183 -77.5q108 0 184.5 77.5t76.5 186.5q0 110 -76.5 187.5
t-184.5 77.5q-107 0 -183 -77.5t-76 -187.5zM381 196h-70v-72h-67v398h137q75 0 124 -47t49 -116t-49 -116t-124 -47z" />
    <glyph glyph-name="Wgrave" unicode="&#x1e80;" horiz-adv-x="949" 
d="M172 0l-164 648h195l80 -413l97 413h189l96 -413l89 413h187l-164 -648h-200l-103 411l-103 -411h-199zM442 681l-145 179h174l105 -179h-134z" />
    <glyph glyph-name="wgrave" unicode="&#x1e81;" horiz-adv-x="754" 
d="M287 511h180l43 -298l61 298h177l-154 -511h-166l-51 298l-51 -298h-166l-154 511h177l61 -298zM334 570l-145 179h174l105 -179h-134z" />
    <glyph glyph-name="Wacute" unicode="&#x1e82;" horiz-adv-x="949" 
d="M172 0l-164 648h195l80 -413l97 413h189l96 -413l89 413h187l-164 -648h-200l-103 411l-103 -411h-199zM365 681l105 179h175l-145 -179h-135z" />
    <glyph glyph-name="wacute" unicode="&#x1e83;" horiz-adv-x="754" 
d="M287 511h180l43 -298l61 298h177l-154 -511h-166l-51 298l-51 -298h-166l-154 511h177l61 -298zM281 570l105 179h175l-145 -179h-135z" />
    <glyph glyph-name="Wdieresis" unicode="&#x1e84;" horiz-adv-x="949" 
d="M172 0l-164 648h195l80 -413l97 413h189l96 -413l89 413h187l-164 -648h-200l-103 411l-103 -411h-199zM284 751q0 33 23.5 56t56.5 23t56.5 -23t23.5 -56t-23.5 -56t-56.5 -23t-56.5 23t-23.5 56zM505 751q0 33 23.5 56t56.5 23t56.5 -23t23.5 -56t-23.5 -56t-56.5 -23
t-56.5 23t-23.5 56z" />
    <glyph glyph-name="wdieresis" unicode="&#x1e85;" horiz-adv-x="754" 
d="M186 648q0 33 23.5 56t56.5 23t56.5 -23t23.5 -56t-23.5 -56t-56.5 -23t-56.5 23t-23.5 56zM407 648q0 33 23.5 56t56.5 23t56.5 -23t23.5 -56t-23.5 -56t-56.5 -23t-56.5 23t-23.5 56zM287 511h180l43 -298l61 298h177l-154 -511h-166l-51 298l-51 -298h-166l-154 511
h177l61 -298z" />
    <glyph glyph-name="Ygrave" unicode="&#x1ef2;" horiz-adv-x="661" 
d="M237 0v281l-229 367h217l107 -201l104 201h217l-226 -367v-281h-190zM287 681l-145 179h174l105 -179h-134z" />
    <glyph glyph-name="ygrave" unicode="&#x1ef3;" horiz-adv-x="560" 
d="M100 -147v161q69 0 89 35l15 28l-198 434h180l99 -262l89 262h180l-214 -508q-21 -50 -51 -82.5t-66 -46t-62.5 -17.5t-60.5 -4zM230 570l-145 179h174l105 -179h-134z" />
    <glyph glyph-name="endash" unicode="&#x2013;" horiz-adv-x="641" 
d="M20 185v139h601v-139h-601z" />
    <glyph glyph-name="emdash" unicode="&#x2014;" horiz-adv-x="730" 
d="M20 185v139h690v-139h-690z" />
    <glyph glyph-name="quoteleft" unicode="&#x2018;" horiz-adv-x="337" 
d="M57 340l116 308h107l-68 -308h-155z" />
    <glyph glyph-name="quoteright" unicode="&#x2019;" horiz-adv-x="337" 
d="M57 340l68 308h155l-116 -308h-107z" />
    <glyph glyph-name="quotesinglbase" unicode="&#x201a;" horiz-adv-x="337" 
d="M57 -137l68 308h155l-116 -308h-107z" />
    <glyph glyph-name="quotedblleft" unicode="&#x201c;" horiz-adv-x="578" 
d="M57 340l116 308h107l-68 -308h-155zM298 340l116 308h107l-68 -308h-155z" />
    <glyph glyph-name="quotedblright" unicode="&#x201d;" horiz-adv-x="578" 
d="M57 340l68 308h155l-116 -308h-107zM298 340l68 308h155l-116 -308h-107z" />
    <glyph glyph-name="quotedblbase" unicode="&#x201e;" horiz-adv-x="578" 
d="M57 -137l68 308h155l-116 -308h-107zM298 -137l68 308h155l-116 -308h-107z" />
    <glyph glyph-name="dagger" unicode="&#x2020;" horiz-adv-x="441" 
d="M155 119v327h-130v112h130v157h127v-157h130v-112h-130v-327h-127z" />
    <glyph glyph-name="daggerdbl" unicode="&#x2021;" horiz-adv-x="441" 
d="M155 -12v210h-130v112h130v136h-130v112h130v157h127v-157h130v-112h-130v-136h130v-112h-130v-210h-127z" />
    <glyph glyph-name="bullet" unicode="&#x2022;" horiz-adv-x="430" 
d="M45 302q0 71 50 120.5t121 49.5t120 -49.5t49 -120.5t-49.5 -121t-119.5 -50q-71 0 -121 50t-50 121z" />
    <glyph glyph-name="ellipsis" unicode="&#x2026;" horiz-adv-x="887" 
d="M343 88q0 42 28.5 70t70.5 28q43 0 72 -28.5t29 -69.5t-29 -69.5t-72 -28.5q-42 0 -70.5 28t-28.5 70zM68 88q0 42 28 70t71 28t72 -28.5t29 -69.5t-29 -69.5t-72 -28.5t-71 28t-28 70zM618 88q0 42 28 70t71 28t72 -28.5t29 -69.5t-29 -69.5t-72 -28.5t-71 28t-28 70z
" />
    <glyph glyph-name="perthousand" unicode="&#x2030;" horiz-adv-x="1375" 
d="M221 658q76 0 123.5 -55.5t47.5 -144.5t-47.5 -144.5t-123.5 -55.5t-123.5 55.5t-47.5 144.5t47.5 144.5t123.5 55.5zM221 542q-48 0 -48 -84t48 -84t48 84t-48 84zM745 389q76 0 123.5 -55.5t47.5 -144.5t-47.5 -144.5t-123.5 -55.5t-123.5 55.5t-47.5 144.5t47.5 144.5
t123.5 55.5zM745 273q-48 0 -48 -84t48 -84t48 84t-48 84zM1154 389q76 0 123.5 -55.5t47.5 -144.5t-47.5 -144.5t-123.5 -55.5t-123.5 55.5t-47.5 144.5t47.5 144.5t123.5 55.5zM1154 273q-48 0 -48 -84t48 -84t48 84t-48 84zM256 39l394 654l79 -45l-394 -654z" />
    <glyph glyph-name="guilsinglleft" unicode="&#x2039;" horiz-adv-x="306" 
d="M22 278l182 180l77 -68l-127 -145l127 -145l-77 -68l-182 182v64z" />
    <glyph glyph-name="guilsinglright" unicode="&#x203a;" horiz-adv-x="306" 
d="M99 458l182 -180v-64l-182 -182l-77 68l127 145l-127 145z" />
    <glyph glyph-name="fraction" unicode="&#x2044;" horiz-adv-x="519" 
d="M55 39l394 654l79 -45l-394 -654z" />
    <glyph glyph-name="zerosuperior" unicode="&#x2070;" horiz-adv-x="440" 
d="M163 522q0 -113 55 -113t55 113t-55 113t-55 -113zM422 522q0 -105 -57 -171.5t-147 -66.5t-147 66.5t-57 171.5t57 171.5t147 66.5t147 -66.5t57 -171.5z" />
    <glyph glyph-name="foursuperior" unicode="&#x2074;" horiz-adv-x="468" 
d="M253 291v71h-223v94l140 306l120 -59l-104 -218h67v90h140v-90h39v-123h-39v-71h-140z" />
    <glyph glyph-name="fivesuperior" unicode="&#x2075;" horiz-adv-x="477" 
d="M53 330l51 101q41 -31 95 -31q35 0 56 14.5t21 36.5q0 18 -18.5 30t-53.5 12q-37 0 -71 -19l-53 40v240h307v-118h-167v-48q2 1 12 1q85 0 135.5 -35t50.5 -107q0 -81 -56 -122t-145 -41q-105 0 -164 46z" />
    <glyph glyph-name="sixsuperior" unicode="&#x2076;" horiz-adv-x="453" 
d="M39 456q0 59 49 129l137 201l101 -74l-61 -92q63 -2 109 -48t46 -109q0 -79 -53 -129t-136 -50q-85 0 -138.5 47.5t-53.5 124.5zM182 454q0 -50 49 -50q47 0 47 50q0 22 -12 37t-35 15q-24 0 -36.5 -14.5t-12.5 -37.5z" />
    <glyph glyph-name="sevensuperior" unicode="&#x2077;" horiz-adv-x="414" 
d="M71 291l161 340h-212v123h378v-76l-169 -387h-158z" />
    <glyph glyph-name="eightsuperior" unicode="&#x2078;" horiz-adv-x="453" 
d="M227 760q78 0 123.5 -37.5t45.5 -92.5q0 -71 -50 -101q35 -11 52 -41t17 -67q0 -63 -49.5 -100t-138.5 -37q-90 0 -139.5 37t-49.5 100q0 36 17.5 66.5t52.5 41.5q-50 29 -50 101q0 55 45.5 92.5t123.5 37.5zM227 489q-24 0 -36.5 -13.5t-12.5 -34.5t12.5 -34.5
t36.5 -13.5t37 13.5t13 34.5t-13 34.5t-37 13.5zM227 653q-24 0 -36 -13.5t-12 -34.5t12 -33.5t36 -12.5q48 0 48 46q0 48 -48 48z" />
    <glyph glyph-name="ninesuperior" unicode="&#x2079;" horiz-adv-x="453" 
d="M420 590q0 -59 -49 -129l-137 -201l-101 74l61 92q-63 2 -109 48t-46 109q0 79 53 129t136 50q85 0 138.5 -47.5t53.5 -124.5zM277 592q0 50 -49 50q-47 0 -47 -50q0 -22 12 -37t35 -15q24 0 36.5 14.5t12.5 37.5z" />
    <glyph glyph-name="n.sups" unicode="&#x207f;" horiz-adv-x="391" 
d="M30 331v337h118v-35q39 41 95 41q33 0 56 -9.5t35.5 -23.5t19 -39.5t8 -47t1.5 -55.5v-168h-128v168q0 30 -6.5 44t-24.5 14q-22 0 -34 -16t-12 -39v-171h-128z" />
    <glyph glyph-name="zeroinferior" unicode="&#x2080;" horiz-adv-x="440" 
d="M163 125q0 -113 55 -113t55 113t-55 113t-55 -113zM422 125q0 -105 -57 -171.5t-147 -66.5t-147 66.5t-57 171.5t57 171.5t147 66.5t147 -66.5t57 -171.5z" />
    <glyph glyph-name="oneinferior" unicode="&#x2081;" horiz-adv-x="412" 
d="M179 -105v288l-78 -48l-56 93l168 130h106v-463h-140z" />
    <glyph glyph-name="twoinferior" unicode="&#x2082;" horiz-adv-x="429" 
d="M34 -105v80q86 58 140.5 121t54.5 104q0 40 -46 40q-39 0 -82 -39l-63 89q40 41 88.5 57.5t84.5 16.5q68 0 118 -35.5t50 -108.5q0 -113 -120 -202h134v-123h-359z" />
    <glyph glyph-name="threeinferior" unicode="&#x2083;" horiz-adv-x="472" 
d="M52 -61l61 96q32 -28 90 -28q30 0 50.5 11.5t20.5 35.5q0 18 -17 30.5t-50 12.5q-22 0 -52 -14l-44 75l110 77h-139v123h314v-112l-88 -64q49 -11 82.5 -45.5t33.5 -87.5q0 -78 -57 -119.5t-144 -41.5q-108 0 -171 51z" />
    <glyph glyph-name="fourinferior" unicode="&#x2084;" horiz-adv-x="468" 
d="M253 -105v71h-223v94l140 306l120 -59l-104 -218h67v90h140v-90h39v-123h-39v-71h-140z" />
    <glyph glyph-name="fiveinferior" unicode="&#x2085;" horiz-adv-x="477" 
d="M53 -63l51 101q41 -31 95 -31q35 0 56 14.5t21 36.5q0 18 -18.5 30t-53.5 12q-37 0 -71 -19l-53 40v240h307v-118h-167v-48q2 1 12 1q85 0 135.5 -35t50.5 -107q0 -81 -56 -122t-145 -41q-105 0 -164 46z" />
    <glyph glyph-name="sixinferior" unicode="&#x2086;" horiz-adv-x="453" 
d="M39 60q0 59 49 129l137 201l101 -74l-61 -92q63 -2 109 -48t46 -109q0 -79 -53 -129t-136 -50q-85 0 -138.5 47.5t-53.5 124.5zM182 58q0 -50 49 -50q47 0 47 50q0 22 -12 37t-35 15q-24 0 -36.5 -14.5t-12.5 -37.5z" />
    <glyph glyph-name="seveninferior" unicode="&#x2087;" horiz-adv-x="414" 
d="M71 -105l161 340h-212v123h378v-76l-169 -387h-158z" />
    <glyph glyph-name="eightinferior" unicode="&#x2088;" horiz-adv-x="453" 
d="M227 364q78 0 123.5 -37.5t45.5 -92.5q0 -71 -50 -101q35 -11 52 -41t17 -67q0 -63 -49.5 -100t-138.5 -37q-90 0 -139.5 37t-49.5 100q0 36 17.5 66.5t52.5 41.5q-50 29 -50 101q0 55 45.5 92.5t123.5 37.5zM227 93q-24 0 -36.5 -13.5t-12.5 -34.5t12.5 -34.5
t36.5 -13.5t37 13.5t13 34.5t-13 34.5t-37 13.5zM227 257q-24 0 -36 -13.5t-12 -34.5t12 -33.5t36 -12.5q48 0 48 46q0 48 -48 48z" />
    <glyph glyph-name="nineinferior" unicode="&#x2089;" horiz-adv-x="453" 
d="M420 194q0 -59 -49 -129l-137 -201l-101 74l61 92q-63 2 -109 48t-46 109q0 79 53 129t136 50q85 0 138.5 -47.5t53.5 -124.5zM277 196q0 50 -49 50q-47 0 -47 -50q0 -22 12 -37t35 -15q24 0 36.5 14.5t12.5 37.5z" />
    <glyph glyph-name="Euro" unicode="&#x20ac;" 
d="M422 226h-124q29 -75 112 -75q52 0 79 41l115 -95q-80 -107 -214 -107q-103 0 -175.5 64t-95.5 172h-89l22 79h57v33h-60l23 79h46q23 110 96 175.5t176 65.5q120 0 197 -86l-104 -108q-27 33 -73 33q-85 0 -114 -80h178l-23 -79h-168v-33h162z" />
    <glyph glyph-name="trademark" unicode="&#x2122;" horiz-adv-x="844" 
d="M340 344v304h74l83 -84l82 84h74v-304h-102v139l-54 -54l-55 53v-138h-102zM108 344v213h-87v91h276v-91h-87v-213h-102z" />
    <glyph glyph-name="minus" unicode="&#x2212;" 
d="M52 222v144h486v-144h-486z" />
    <glyph glyph-name="approxequal" unicode="&#x2248;" 
d="M195 326h-139q0 181 138 181q41 0 90 -19.5t70 -19.5q41 0 41 39h139q0 -180 -138 -180q-41 0 -90 19t-70 19q-41 0 -41 -39zM195 90h-139q0 181 138 181q41 0 90 -19.5t70 -19.5q41 0 41 39h139q0 -180 -138 -180q-41 0 -90 19t-70 19q-41 0 -41 -39z" />
    <glyph glyph-name="notequal" unicode="&#x2260;" 
d="M52 341v144h315l83 138l62 -37l-61 -101h87v-144h-174l-56 -94h230v-144h-317l-86 -143l-62 37l64 106h-85v144h171l57 94h-228z" />
    <glyph glyph-name="lessequal" unicode="&#x2264;" 
d="M52 0v144h486v-144h-486zM52 324v161l486 119v-153l-331 -47l331 -46v-153z" />
    <glyph glyph-name="greaterequal" unicode="&#x2265;" 
d="M538 144v-144h-486v144h486zM538 485v-161l-486 -119v153l331 46l-331 47v153z" />
    <glyph glyph-name="commainferior" unicode="&#xf6e1;" horiz-adv-x="209" 
d="M9 -191l54 257h127l-100 -257h-81z" />
    <glyph glyph-name="commasuperior" unicode="&#xf6e2;" horiz-adv-x="209" 
d="M9 206l54 245h127l-100 -245h-81z" />
    <glyph glyph-name="periodinferior" unicode="&#xf6e7;" horiz-adv-x="209" 
d="M24 -33q0 34 24.5 58.5t57.5 24.5q34 0 58.5 -24.5t24.5 -58.5t-24.5 -58t-58.5 -24t-58 23.5t-24 58.5z" />
    <glyph glyph-name="periodsuperior" unicode="&#xf6e8;" horiz-adv-x="209" 
d="M24 364q0 34 24 58.5t59 24.5t59 -24.5t24 -58.5t-24 -58.5t-59 -24.5t-59 24.5t-24 58.5z" />
    <glyph glyph-name="apple" unicode="&#xf8ff;" horiz-adv-x="805" 
d="M-2 -9q1 6 14 13.5t34.5 17t30.5 14.5q1 5 5 27q3 12 45 118q-16 2 -96 19q14 91 19 110q0 5 2 15t2 16v4q-3 3 -12 3.5t-11 1.5q0 16 9.5 45t10.5 41q4 13 13 41.5t14 44.5q80 18 96 19q0 15 -10 33q0 1 4.5 5.5t8 9t3.5 7.5t-2 4q-19 7 -35 7v4h37v71q88 3 99 4
q-5 -18 -14 -37l-8 -39q1 0 67 3l1 9q3 19 16 39l2 5q10 -2 32 -3t36 -4q5 -17 5 -31q0 -9 -1 -14l47 -7l33 4v8q0 64 -7 93q5 -1 22 -1q35 0 39 2q32 5 44 5q-1 -12 -4 -31t-5 -34t-2 -31v-8q6 -2 23.5 -3t23.5 -3q-4 -1 -19.5 -2.5t-21.5 -4.5l20 -35q-7 -19 -10 -42
q66 15 78 16q1 -2 1 -5q0 -4 -2.5 -14.5t-2.5 -16.5q7 -9 16 -26t15 -30l6 -12l28 -132q2 -1 3.5 -21.5t3 -54t2.5 -46.5l1 -9h-48q26 -50 47 -83l18 -26l-15 -11l28 -21q-4 -1 -11 -1q-8 0 -22.5 5t-20.5 6q0 -4 -1.5 -6t-2.5 -2.5t-4.5 -0.5h-5.5q-6 1 -12 19q-4 6 -5 11
q-6 10 -18.5 32.5t-22 40t-16.5 34.5q-5 3 -11 3l-19 -1q-12 -34 -27 -62q-1 -7 -1.5 -15t-1 -17.5t-0.5 -14.5q0 -18 -6 -30l-24 -6v5q0 3 -2 4q-4 -1 -16 -10.5t-20 -9.5l12 47q2 7 9 25.5t10.5 28.5t7 26t4.5 30q-6 -1 -24 -5.5t-30 -4.5h-13q-6 -30 -6 -57q0 -22 3 -43
q2 -14 12 -65q3 -13 4 -14q-18 2 -47 26q-3 4 -8 6l-6 -4l-12 2q1 9 3.5 25t2.5 24q10 67 12 105q-11 3 -19 3l-23 -1l-4 -7v-37q-2 -28 -2 -38v-25q0 -3 0.5 -12.5t1.5 -15.5l-3 -18l-18 -4q0 7 -4 7q-2 0 -5 -1.5t-4 -1.5q-2 0 -18 -5t-25 -5q1 6 7.5 13.5t8.5 11.5v31
q-6 60 -6 89v12l-1 5q-9 -3 -10 -3l-11 2h-34q-11 0 -16 -3q17 -81 19 -102q1 -7 1 -18q2 -11 13 -35.5t12 -39.5q-9 3 -23.5 16t-19.5 16l-14 9l-4 -9l-22 12q-1 12 -5 49q-8 74 -20 109q-3 2 -10 2h-6q-8 0 -11 2q-22 -47 -25 -113q-2 -10 -2 -13l1 -16l-1 -17l-19 -1
q-5 0 -8 1q2 0 2 3v6q-18 -2 -55 -18t-61 -17zM561 557l9 6q0 9 -13 16q-1 1 -5 11t-4 11h-6q-24 -2 -30 -5q-4 -8 -4 -13v-7q0 -7 -1 -10q13 -14 17 -29q7 -1 22.5 -7.5t19.5 -6.5q3 0 3 1q1 1 1 5l-3 11l1 7q-1 0 -4 4t-3 6zM498 529q8 8 8 12l-18 39q1 3 4.5 7.5t3.5 7.5
q0 4 -1 5q-11 2 -29 2h-19q-18 0 -26 1q1 -11 8 -23q-3 -8 -5.5 -25.5t-6.5 -26.5q13 5 35 5zM656 384q-1 5 -10 12.5t-11 13.5v5q0 3 2 13l-11 1q-3 -2 -4 -6.5t-1 -9.5v-6q-18 15 -45 15q-16 0 -22 -3v-9q2 -1 5 -1l13 1q6 0 9 -4l-1 -4q-5 2 -17 2q-18 0 -31 -14l1 -6
l3 1q18 7 27 7q5 0 7 -3h-4q-14 0 -26 -25l6 -3q5 7 9.5 10t11.5 5t10 3q4 0 4 -7q-13 -7 -13 -23q3 -4 7 -4q1 0 5 2q0 5 3 8.5t5.5 4.5t8.5 3t8 3q4 0 8 -3t6 -4q7 -7 10 -7q6 0 13.5 15.5t13.5 16.5zM364 594v10q-24 -2 -27 -4q2 -2 2 -8q0 -7 -8 -16.5t-9 -16.5
q6 -26 15 -36q2 0 6.5 -1.5t6.5 -1.5t5 1t4 1q-5 10 -5 11q0 5 7 24q-12 0 -12 5q0 4 7 8q8 6 8 24zM329 603q-4 4 -20 4l-19 -2l-30 -4l-3 -5l19 -27q-13 -22 -13 -27l42 -9l3 35q20 22 21 35zM390 453l-41 -8q1 1 1 3v2l-1 2l9 6q8 5 11 11l3 7q-36 -13 -55 -28q0 -3 1 -4
q3 -6 3 -10t-5 -7t-11.5 -5t-8.5 -4q2 -2 5.5 -9.5t8 -12t11.5 -4.5q11 9 25 9h41zM205 570q0 8 -9 8q-8 0 -8 -8t8 -8q9 0 9 8zM218 600h-25q0 -17 2 -17q13 0 13 -13t-13 -13t-13 16l-4 -2q1 -6 2 -18.5t2.5 -19.5t3.5 -9q16 -7 17 -7q3 0 4 2l4 25q-9 0 -9 3q0 4 5.5 8
t5.5 7q3 17 5 38zM251 369l-13 11q-3 3 -12.5 10.5t-13 10t-11 6.5t-15.5 5q-8 -3 -26 -14t-28 -14l10 -16q7 1 32 11q1 -5 5.5 -16.5t5.5 -19.5l-9 -18l22 15l-3 18q1 3 4 3l7 -8q3 -5 3 -8q0 -11 -7 -20q2 -2 5 -2l4 1l11 20q-1 2 -5 20q14 -5 19 -12q-1 -4 -5.5 -9.5
t-4.5 -6.5l7 -5l16 26q-3 3 -3 4q0 3 5 8zM236 370l-20 6q1 3 4 3t9 -4.5t7 -4.5z" />
    <glyph glyph-name="a_alt" horiz-adv-x="572" 
d="M206 160q0 -15 13.5 -23.5t32.5 -8.5q42 0 72.5 24.5t30.5 68.5q-69 0 -109 -18.5t-40 -42.5zM38 136q0 91 83 143.5t195 52.5h31q-15 44 -81 44q-26 0 -57 -6t-49 -12l-18 -7l-52 116q8 6 24 15t70.5 24t114.5 15q114 0 176 -64.5t62 -190.5v-266h-182v57
q-57 -67 -153 -67q-81 0 -122.5 44t-41.5 102z" />
    <glyph glyph-name="one.onum" horiz-adv-x="674" 
d="M525 0h-182v280l-150 -89l-78 127l246 192h164v-510z" />
    <glyph glyph-name="two.onum" horiz-adv-x="596" 
d="M79 0v111q96 44 181.5 106.5t85.5 101.5q0 43 -63 43q-35 0 -77 -12.5t-65 -27.5l-68 135q95 64 221 64q111 0 172.5 -51.5t61.5 -126.5q0 -117 -130 -184h152v-159h-471z" />
    <glyph glyph-name="three.onum" horiz-adv-x="586" 
d="M38 -48l56 116q52 -41 144 -41q51 0 80 18.5t29 47.5q0 22 -23 36.5t-67 14.5q-58 0 -99 -22l-56 97l184 133h-217v159h438v-155l-125 -100q68 -14 110 -57.5t42 -112.5q0 -68 -39 -115.5t-97 -67.5t-129 -20q-142 0 -231 69z" />
    <glyph glyph-name="four.onum" horiz-adv-x="592" 
d="M333 -117v117h-304v118l207 418l150 -78l-154 -299h101v127h172v-127h70v-159h-70v-117h-172z" />
    <glyph glyph-name="five.onum" horiz-adv-x="586" 
d="M51 -60l53 118q53 -35 138 -35q47 0 76.5 18t29.5 45q0 57 -103 57q-61 0 -121 -21l-48 48v341h409v-159h-227v-74q19 3 41 3q57 0 107.5 -18t87 -61.5t36.5 -104.5q0 -105 -74 -159.5t-191 -54.5q-128 0 -214 57z" />
    <glyph glyph-name="six.onum" horiz-adv-x="565" 
d="M25 225q0 43 16 94t42 88l200 285l141 -84l-102 -155h5q90 0 154 -63.5t64 -153.5q0 -112 -72.5 -181t-188.5 -69q-115 0 -187 66.5t-72 172.5zM212 222q0 -35 18.5 -56t53.5 -21q36 0 55 21t19 56q0 33 -19 54.5t-55 21.5q-35 0 -53.5 -21.5t-18.5 -54.5z" />
    <glyph glyph-name="seven.onum" horiz-adv-x="598" 
d="M143 -117l218 470h-318v159h529v-106l-230 -523h-199z" />
    <glyph glyph-name="eight.onum" 
d="M279 658q106 0 166.5 -52t60.5 -132q0 -99 -71 -141q50 -17 75 -59.5t25 -92.5q0 -89 -67 -141t-189 -52t-189 52t-67 141q0 50 25 92.5t75 59.5q-71 42 -71 141q0 80 60.5 132t166.5 52zM279 274q-33 0 -50 -18t-17 -47t17 -47.5t50 -18.5t50 18.5t17 47.5t-17 47
t-50 18zM279 505q-32 0 -48.5 -18t-16.5 -46t16.5 -45.5t48.5 -17.5t48.5 17.5t16.5 45.5t-16.5 46t-48.5 18z" />
    <glyph glyph-name="nine.onum" 
d="M547 281q0 -43 -16 -94t-42 -88l-186 -268l-141 84l88 138h-5q-90 0 -154 63.5t-64 153.5q0 112 72.5 181t188.5 69q115 0 187 -66.5t72 -172.5zM360 284q0 35 -18.5 56t-53.5 21q-36 0 -55 -21t-19 -56q0 -33 19 -54.5t55 -21.5q35 0 53.5 21.5t18.5 54.5z" />
    <glyph glyph-name="zero.onum" horiz-adv-x="583" 
d="M228 255q0 -104 63 -104t63 104t-63 104t-63 -104zM45 255q0 116 69 191t177 75t177 -75t69 -191t-69 -191t-177 -75t-177 75t-69 191z" />
    <glyph glyph-name="zero.pnum" 
d="M295 497q-87 0 -87 -173t87 -173t87 173t-87 173zM295 -10q-121 0 -196 93t-75 241t75 241t196 93t196 -93t75 -241t-75 -241t-196 -93z" />
    <glyph glyph-name="one.pnum" horiz-adv-x="545" 
d="M450 0h-182v418l-138 -83l-78 127l234 186h164v-648z" />
    <glyph glyph-name="two.pnum" 
d="M31 0v112q130 83 213 174.5t83 149.5q0 56 -64 56q-69 0 -138 -54l-85 120q54 55 121 77.5t118 22.5q96 0 166 -50t70 -152q0 -157 -179 -297h199v-159h-504z" />
    <glyph glyph-name="three.pnum" 
d="M36 61l58 121q59 -42 160 -42q52 0 85.5 19.5t33.5 60.5q0 28 -26.5 46.5t-76.5 18.5q-46 0 -90 -21l-46 88l177 137h-232v159h438v-153l-127 -110q73 -8 119.5 -55.5t46.5 -121.5t-42 -124.5t-103.5 -71.5t-136.5 -21q-151 0 -238 70z" />
    <glyph glyph-name="four.pnum" horiz-adv-x="645" 
d="M356 0v114h-299v118l198 441l148 -59l-148 -341h101v127h167v-127h70v-159h-70v-114h-167z" />
    <glyph glyph-name="five.pnum" 
d="M51 58l61 123q57 -44 145 -44q56 0 83.5 21t27.5 54t-34 50t-90 17q-63 0 -109 -26l-57 58v337h430v-159h-248v-72q15 3 48 3q96 0 169.5 -51t73.5 -145q0 -111 -81.5 -172.5t-204.5 -61.5q-127 0 -214 68z" />
    <glyph glyph-name="six.pnum" 
d="M37 225q0 43 16 94t42 88l200 285l141 -84l-102 -155h5q90 0 154 -63.5t64 -153.5q0 -112 -72.5 -181t-188.5 -69q-115 0 -187 66.5t-72 172.5zM224 222q0 -35 18.5 -56t53.5 -21q36 0 55 21t19 56q0 33 -19 54.5t-55 21.5q-35 0 -53.5 -21.5t-18.5 -54.5z" />
    <glyph glyph-name="seven.pnum" horiz-adv-x="584" 
d="M99 0l245 489h-318v159h529v-106l-257 -542h-199z" />
    <glyph glyph-name="eight.pnum" 
d="M295 658q106 0 166.5 -52t60.5 -132q0 -99 -71 -141q50 -17 75 -59.5t25 -92.5q0 -89 -67 -141t-189 -52t-189 52t-67 141q0 50 25 92.5t75 59.5q-71 42 -71 141q0 80 60.5 132t166.5 52zM295 274q-33 0 -50 -18t-17 -47t17 -47.5t50 -18.5t50 18.5t17 47.5t-17 47
t-50 18zM295 505q-32 0 -48.5 -18t-16.5 -46t16.5 -45.5t48.5 -17.5t48.5 17.5t16.5 45.5t-16.5 46t-48.5 18z" />
    <glyph glyph-name="nine.pnum" 
d="M557 419q0 -43 -16 -94t-42 -88l-186 -268l-141 84l88 138h-5q-90 0 -154 63.5t-64 153.5q0 112 72.5 181t188.5 69q115 0 187 -66.5t72 -172.5zM370 422q0 35 -18.5 56t-53.5 21q-36 0 -55 -21t-19 -56q0 -33 19 -54.5t55 -21.5q35 0 53.5 21.5t18.5 54.5z" />
    <glyph glyph-name="zero.onumtab" horiz-adv-x="567" 
d="M220 255q0 -104 63 -104t63 104t-63 104t-63 -104zM37 255q0 116 69 191t177 75t177 -75t69 -191t-69 -191t-177 -75t-177 75t-69 191z" />
    <glyph glyph-name="one.onumtab" horiz-adv-x="567" 
d="M64 0v159h172v122l-130 -56l-65 130l213 156h166v-352h131v-159h-487z" />
    <glyph glyph-name="two.onumtab" horiz-adv-x="567" 
d="M47 0v111q96 44 181.5 106.5t85.5 101.5q0 43 -63 43q-35 0 -77 -12.5t-65 -27.5l-68 135q95 64 221 64q111 0 172.5 -51.5t61.5 -126.5q0 -117 -130 -184h152v-159h-471z" />
    <glyph glyph-name="three.onumtab" horiz-adv-x="567" 
d="M23 -48l56 116q52 -41 144 -41q51 0 80 18.5t29 47.5q0 22 -23 36.5t-67 14.5q-58 0 -99 -22l-56 97l184 133h-217v159h438v-155l-125 -100q68 -14 110 -57.5t42 -112.5q0 -68 -39 -115.5t-97 -67.5t-129 -20q-142 0 -231 69z" />
    <glyph glyph-name="four.onumtab" horiz-adv-x="567" 
d="M317 -117v117h-304v118l207 418l150 -78l-154 -299h101v127h172v-127h70v-159h-70v-117h-172z" />
    <glyph glyph-name="five.onumtab" horiz-adv-x="567" 
d="M43 -60l53 118q53 -35 138 -35q47 0 76.5 18t29.5 45q0 57 -103 57q-61 0 -121 -21l-48 48v341h409v-159h-227v-74q19 3 41 3q57 0 107.5 -18t87 -61.5t36.5 -104.5q0 -105 -74 -159.5t-191 -54.5q-128 0 -214 57z" />
    <glyph glyph-name="six.onumtab" horiz-adv-x="567" 
d="M37 225q0 43 16 94t42 88l200 285l141 -84l-102 -155h5q90 0 154 -63.5t64 -153.5q0 -112 -72.5 -181t-188.5 -69q-115 0 -187 66.5t-72 172.5zM224 222q0 -35 18.5 -56t53.5 -21q36 0 55 21t19 56q0 33 -19 54.5t-55 21.5q-35 0 -53.5 -21.5t-18.5 -54.5z" />
    <glyph glyph-name="seven.onumtab" horiz-adv-x="567" 
d="M130 -117l218 470h-318v159h529v-106l-230 -523h-199z" />
    <glyph glyph-name="eight.onumtab" horiz-adv-x="567" 
d="M284 658q106 0 166.5 -52t60.5 -132q0 -99 -71 -141q50 -17 75 -59.5t25 -92.5q0 -89 -67 -141t-189 -52t-189 52t-67 141q0 50 25 92.5t75 59.5q-71 42 -71 141q0 80 60.5 132t166.5 52zM284 274q-33 0 -50 -18t-17 -47t17 -47.5t50 -18.5t50 18.5t17 47.5t-17 47
t-50 18zM284 505q-32 0 -48.5 -18t-16.5 -46t16.5 -45.5t48.5 -17.5t48.5 17.5t16.5 45.5t-16.5 46t-48.5 18z" />
    <glyph glyph-name="nine.onumtab" horiz-adv-x="567" 
d="M557 282q0 -43 -16 -94t-42 -88l-186 -268l-141 84l88 138h-5q-90 0 -154 63.5t-64 153.5q0 112 72.5 181t188.5 69q115 0 187 -66.5t72 -172.5zM370 285q0 35 -18.5 56t-53.5 21q-36 0 -55 -21t-19 -56q0 -33 19 -54.5t55 -21.5q35 0 53.5 21.5t18.5 54.5z" />
    <glyph glyph-name="aacute_alt" horiz-adv-x="572" 
d="M206 160q0 -15 13.5 -23.5t32.5 -8.5q42 0 72.5 24.5t30.5 68.5q-69 0 -109 -18.5t-40 -42.5zM38 136q0 91 83 143.5t195 52.5h31q-15 44 -81 44q-26 0 -57 -6t-49 -12l-18 -7l-52 116q8 6 24 15t70.5 24t114.5 15q114 0 176 -64.5t62 -190.5v-266h-182v57
q-57 -67 -153 -67q-81 0 -122.5 44t-41.5 102zM177 570l105 179h175l-145 -179h-135z" />
    <glyph glyph-name="agrave_alt" horiz-adv-x="572" 
d="M206 160q0 -15 13.5 -23.5t32.5 -8.5q42 0 72.5 24.5t30.5 68.5q-69 0 -109 -18.5t-40 -42.5zM38 136q0 91 83 143.5t195 52.5h31q-15 44 -81 44q-26 0 -57 -6t-49 -12l-18 -7l-52 116q8 6 24 15t70.5 24t114.5 15q114 0 176 -64.5t62 -190.5v-266h-182v57
q-57 -67 -153 -67q-81 0 -122.5 44t-41.5 102zM254 570l-145 179h174l105 -179h-134z" />
    <glyph glyph-name="acircumflex_alt" horiz-adv-x="572" 
d="M206 160q0 -15 13.5 -23.5t32.5 -8.5q42 0 72.5 24.5t30.5 68.5q-69 0 -109 -18.5t-40 -42.5zM38 136q0 91 83 143.5t195 52.5h31q-15 44 -81 44q-26 0 -57 -6t-49 -12l-18 -7l-52 116q8 6 24 15t70.5 24t114.5 15q114 0 176 -64.5t62 -190.5v-266h-182v57
q-57 -67 -153 -67q-81 0 -122.5 44t-41.5 102zM83 575l132 179h173l132 -179h-127l-92 98l-90 -98h-128z" />
    <glyph glyph-name="adieresis_alt" horiz-adv-x="572" 
d="M206 160q0 -15 13.5 -23.5t32.5 -8.5q42 0 72.5 24.5t30.5 68.5q-69 0 -109 -18.5t-40 -42.5zM38 136q0 91 83 143.5t195 52.5h31q-15 44 -81 44q-26 0 -57 -6t-49 -12l-18 -7l-52 116q8 6 24 15t70.5 24t114.5 15q114 0 176 -64.5t62 -190.5v-266h-182v57
q-57 -67 -153 -67q-81 0 -122.5 44t-41.5 102zM111 648q0 33 23.5 56t56.5 23t56.5 -23t23.5 -56t-23.5 -56t-56.5 -23t-56.5 23t-23.5 56zM332 648q0 33 23.5 56t56.5 23t56.5 -23t23.5 -56t-23.5 -56t-56.5 -23t-56.5 23t-23.5 56z" />
    <glyph glyph-name="atilde_alt" horiz-adv-x="572" 
d="M206 160q0 -15 13.5 -23.5t32.5 -8.5q42 0 72.5 24.5t30.5 68.5q-69 0 -109 -18.5t-40 -42.5zM38 136q0 91 83 143.5t195 52.5h31q-15 44 -81 44q-26 0 -57 -6t-49 -12l-18 -7l-52 116q8 6 24 15t70.5 24t114.5 15q114 0 176 -64.5t62 -190.5v-266h-182v57
q-57 -67 -153 -67q-81 0 -122.5 44t-41.5 102zM87 561q0 73 29.5 115t76.5 42q33 0 67 -14.5t58 -29t34 -14.5q22 0 29 15t7 43h90q0 -73 -29.5 -115t-76.5 -42q-33 0 -67 14.5t-58 29t-34 14.5q-22 0 -29 -15t-7 -43h-90z" />
    <glyph glyph-name="aring_alt" horiz-adv-x="572" 
d="M206 160q0 -15 13.5 -23.5t32.5 -8.5q42 0 72.5 24.5t30.5 68.5q-69 0 -109 -18.5t-40 -42.5zM38 136q0 91 83 143.5t195 52.5h31q-15 44 -81 44q-26 0 -57 -6t-49 -12l-18 -7l-52 116q8 6 24 15t70.5 24t114.5 15q114 0 176 -64.5t62 -190.5v-266h-182v57
q-57 -67 -153 -67q-81 0 -122.5 44t-41.5 102zM181 653q0 49 34 83t83 34t83 -34t34 -83t-34 -83t-83 -34t-83 34t-34 83zM257 653q0 -18 12 -31t29 -13t29 13t12 31t-12 30.5t-29 12.5t-29 -12.5t-12 -30.5z" />
    <glyph glyph-name="amacron_alt" horiz-adv-x="572" 
d="M206 160q0 -15 13.5 -23.5t32.5 -8.5q42 0 72.5 24.5t30.5 68.5q-69 0 -109 -18.5t-40 -42.5zM38 136q0 91 83 143.5t195 52.5h31q-15 44 -81 44q-26 0 -57 -6t-49 -12l-18 -7l-52 116q8 6 24 15t70.5 24t114.5 15q114 0 176 -64.5t62 -190.5v-266h-182v57
q-57 -67 -153 -67q-81 0 -122.5 44t-41.5 102zM163 579v105h266v-105h-266z" />
    <glyph glyph-name="abreve_alt" horiz-adv-x="572" 
d="M206 160q0 -15 13.5 -23.5t32.5 -8.5q42 0 72.5 24.5t30.5 68.5q-69 0 -109 -18.5t-40 -42.5zM38 136q0 91 83 143.5t195 52.5h31q-15 44 -81 44q-26 0 -57 -6t-49 -12l-18 -7l-52 116q8 6 24 15t70.5 24t114.5 15q114 0 176 -64.5t62 -190.5v-266h-182v57
q-57 -67 -153 -67q-81 0 -122.5 44t-41.5 102zM298 557q-66 0 -107 45t-41 108h91q0 -22 16 -37.5t41 -15.5q24 0 39.5 15.5t15.5 37.5h93q0 -63 -41 -108t-107 -45z" />
    <glyph glyph-name="aringacute_alt" horiz-adv-x="572" 
d="M38 136q0 91 83 143.5t195 52.5h31q-15 44 -81 44q-26 0 -57 -6t-49 -12l-18 -7l-52 116q8 6 24 15t70.5 24t114.5 15q114 0 176 -64.5t62 -190.5v-266h-182v57q-57 -67 -153 -67q-81 0 -122.5 44t-41.5 102zM177 683q0 58 45 93l77 178h129l-96 -161q35 -11 57 -41.5
t22 -68.5q0 -49 -34 -83t-83 -34t-83 34t-34 83zM206 160q0 -15 13.5 -23.5t32.5 -8.5q42 0 72.5 24.5t30.5 68.5q-69 0 -109 -18.5t-40 -42.5zM253 683q0 -18 12 -31t29 -13t29 13t12 31t-12 30.5t-29 12.5t-29 -12.5t-12 -30.5z" />
    <glyph glyph-name="aogonek_alt" horiz-adv-x="572" 
d="M309 -128q0 69 46 133v52q-57 -67 -153 -67q-81 0 -122.5 44t-41.5 102q0 91 83 143.5t195 52.5h31q-15 44 -81 44q-26 0 -57 -6t-49 -12l-18 -7l-52 116q8 6 24 15t70.5 24t114.5 15q114 0 176 -64.5t62 -190.5v-266h-99q-30 -30 -30 -70q0 -23 14.5 -37.5t42.5 -14.5
q7 0 16.5 2.5t10.5 2.5l21 -67q-49 -36 -110 -36q-38 0 -66 24.5t-28 67.5zM206 160q0 -15 13.5 -23.5t32.5 -8.5q42 0 72.5 24.5t30.5 68.5q-69 0 -109 -18.5t-40 -42.5z" />
    <glyph glyph-name="questiondown.cap" horiz-adv-x="473" 
d="M325 414l18 -131q-141 0 -141 -71q0 -25 17 -40t41 -15q34 0 54 34l146 -66q-24 -66 -78.5 -101.5t-128.5 -35.5q-104 0 -163.5 55.5t-59.5 141.5q0 65 41.5 114t107.5 60l13 55h133zM357 560q0 -42 -28.5 -70t-70.5 -28q-43 0 -72 28.5t-29 69.5t29 69.5t72 28.5
q42 0 70.5 -28t28.5 -70z" />
    <glyph glyph-name="exclamdown.cap" horiz-adv-x="304" 
d="M223 407l15 -407h-175l14 407h146zM250 560q0 -42 -28 -70t-71 -28t-72 28.5t-29 69.5t29 69.5t72 28.5t71 -28t28 -70z" />
    <glyph glyph-name="hyphen.cap" horiz-adv-x="516" 
d="M30 252v139h456v-139h-456z" />
    <glyph glyph-name="endash.cap" horiz-adv-x="641" 
d="M20 249v139h601v-139h-601z" />
    <glyph glyph-name="emdash.cap" horiz-adv-x="730" 
d="M20 250v139h690v-139h-690z" />
    <glyph glyph-name="periodcentered.cap" horiz-adv-x="229" 
d="M14 364q0 41 29.5 70.5t70.5 29.5t70.5 -29.5t29.5 -70.5t-29.5 -70.5t-70.5 -29.5t-70.5 29.5t-29.5 70.5z" />
    <glyph glyph-name="parenleft.cap" horiz-adv-x="408" 
d="M217 305q0 -191 113 -313l-85 -97q-31 22 -61 55t-61.5 83t-51 121t-19.5 151t19.5 151t51 121t61.5 83t61 55l85 -97q-113 -122 -113 -313z" />
    <glyph glyph-name="parenright.cap" horiz-adv-x="408" 
d="M191 305q0 191 -113 313l85 97q31 -22 61 -55t61.5 -83t51 -121t19.5 -151t-19.5 -151t-51 -121t-61.5 -83t-61 -55l-85 97q113 122 113 313z" />
    <glyph glyph-name="bracketleft.cap" horiz-adv-x="371" 
d="M52 -69v793h272v-107h-101v-579h101v-107h-272z" />
    <glyph glyph-name="bracketright.cap" horiz-adv-x="371" 
d="M319 724v-793h-272v107h101v579h-101v107h272z" />
    <glyph glyph-name="braceleft.cap" horiz-adv-x="481" 
d="M56 387h32q50 0 50 81v44q0 109 42 163.5t135 54.5h119v-118h-41q-42 0 -58 -18t-16 -82v-45q0 -131 -120 -142q120 -11 120 -142v-45q0 -64 16 -82t58 -18h41v-118h-119q-93 0 -135 54.5t-42 163.5v44q0 81 -50 81h-32v124z" />
    <glyph glyph-name="braceright.cap" horiz-adv-x="481" 
d="M393 387h32v-124h-32q-50 0 -50 -81v-44q0 -109 -42 -163.5t-135 -54.5h-119v118h41q42 0 58 18t16 82v45q0 131 120 142q-120 11 -120 142v45q0 64 -16 82t-58 18h-41v118h119q93 0 135 -54.5t42 -163.5v-44q0 -81 50 -81z" />
    <glyph glyph-name="zero.slash" 
d="M295 -10q-121 0 -196 93t-75 241t75 241t196 93t196 -93t75 -241t-75 -241t-196 -93zM382 324q0 37 -5 74l-137 -222q22 -25 55 -25q87 0 87 173zM295 497q-87 0 -87 -173q0 -40 2 -57l131 212q-18 18 -46 18z" />
    <glyph glyph-name="a.sups" horiz-adv-x="379" 
d="M24 416q0 48 35 78t75.5 39t84.5 9q-10 32 -49 32q-17 0 -38 -4.5t-33 -9.5l-12 -4l-35 81q6 4 16.5 10t46.5 16.5t76 10.5q160 0 160 -167v-176h-122v41q-38 -49 -106 -49q-48 0 -73.5 27t-25.5 66zM137 433q0 -19 26 -19q29 0 46.5 17t19.5 41q-92 0 -92 -39z" />
    <glyph glyph-name="b.sups" horiz-adv-x="397" 
d="M30 331v430h128v-105q28 19 72 19q65 0 106 -51t41 -125q0 -73 -42 -123.5t-105 -50.5q-48 0 -82 32v-26h-118zM158 500q0 -58 45 -58q22 0 34 16.5t12 41.5t-12 41.5t-34 16.5q-45 0 -45 -58z" />
    <glyph glyph-name="c.sups" horiz-adv-x="324" 
d="M263 460l66 -96q-53 -40 -128 -40q-81 0 -131 50.5t-50 125.5q0 73 51.5 123.5t129.5 50.5q75 0 127 -40l-70 -92q-24 15 -50 15q-28 0 -44 -17t-16 -41t16 -41t44 -17q30 0 55 19z" />
    <glyph glyph-name="d.sups" horiz-adv-x="397" 
d="M367 762v-430h-118v26q-34 -32 -82 -32q-63 0 -105 50.5t-42 123.5q0 74 41 125t106 51q43 0 72 -19v105h128zM239 501q0 58 -45 58q-22 0 -34 -16.5t-12 -41.5t12 -41.5t34 -16.5q45 0 45 58z" />
    <glyph glyph-name="e.sups" horiz-adv-x="387" 
d="M363 459h-216q19 -46 83 -46q40 0 74 17l27 -77q-54 -29 -130 -29q-81 0 -131 50.5t-50 125.5q0 73 51 123.5t130 50.5q74 0 120 -50t46 -124q0 -22 -4 -41zM200 577q-45 0 -57 -51h109q-6 51 -52 51z" />
    <glyph glyph-name="f.sups" horiz-adv-x="283" 
d="M69 243v322h-53v99h53v15q0 53 36 83.5t87 30.5q55 0 100 -32l-34 -71q-16 8 -33 8q-27 0 -27 -25v-9h62v-99h-63v-322h-128z" />
    <glyph glyph-name="g.sups" horiz-adv-x="395" 
d="M367 668v-259q0 -32 -9.5 -61.5t-30 -56t-58.5 -42t-88 -15.5q-92 0 -152 38l44 78q43 -26 92 -26q36 0 56 16.5t22 40.5q-30 -17 -76 -17q-65 0 -106 45t-41 111q0 64 42 109t105 45q47 0 82 -32v26h118zM239 514q0 58 -45 58q-22 0 -34 -16.5t-12 -41.5t12 -41.5
t34 -16.5q45 0 45 58z" />
    <glyph glyph-name="h.sups" horiz-adv-x="391" 
d="M30 331v430h128v-119q37 32 85 32q33 0 56 -9.5t35.5 -23.5t19 -39.5t8 -47t1.5 -55.5v-168h-128v168q0 30 -6.5 44t-24.5 14q-22 0 -34 -16t-12 -39v-171h-128z" />
    <glyph glyph-name="i.sups" horiz-adv-x="188" 
d="M30 331v337h128v-337h-128zM22 772q0 30 20.5 50t51.5 20t51.5 -20t20.5 -50t-20.5 -50t-51.5 -20t-51.5 20t-20.5 50z" />
    <glyph glyph-name="j.sups" horiz-adv-x="196" 
d="M-36 282q72 37 72 131v255h128v-234q0 -93 -35 -149.5t-116 -93.5zM28 772q0 30 20.5 50t51.5 20t51.5 -20t20.5 -50t-20.5 -50t-51.5 -20t-51.5 20t-20.5 50z" />
    <glyph glyph-name="k.sups" horiz-adv-x="393" 
d="M30 331v430h128v-196l79 103h149l-142 -150l161 -187h-147l-87 99l-13 -18v-81h-128z" />
    <glyph glyph-name="l.sups" horiz-adv-x="188" 
d="M30 331v430h128v-430h-128z" />
    <glyph glyph-name="m.sups" horiz-adv-x="596" 
d="M440 331v168q0 30 -6.5 44t-24.5 14q-23 0 -34.5 -17t-11.5 -41v-168h-128v168q0 30 -6.5 44t-24.5 14q-23 0 -34.5 -18t-11.5 -44v-164h-128v337h118v-35q39 41 95 41q76 0 102 -50q42 50 103 50q33 0 56 -9.5t35.5 -23.5t19 -39.5t8 -47t1.5 -55.5v-168h-128z" />
    <glyph glyph-name="o.sups" horiz-adv-x="403" 
d="M20 500q0 73 51.5 123.5t129.5 50.5q79 0 130.5 -50.5t51.5 -123.5q0 -74 -50.5 -125t-131.5 -51t-131 50.5t-50 125.5zM147 499q0 -25 14.5 -41.5t39.5 -16.5t39.5 16.5t14.5 41.5t-14.5 41.5t-39.5 16.5t-39.5 -16.5t-14.5 -41.5z" />
    <glyph glyph-name="p.sups" horiz-adv-x="397" 
d="M30 243v425h118v-28q34 34 82 34q63 0 105 -50.5t42 -123.5q0 -74 -41 -125t-106 -51q-44 0 -72 19v-100h-128zM158 499q0 -58 45 -58q22 0 34 16.5t12 41.5t-12 41.5t-34 16.5q-45 0 -45 -58z" />
    <glyph glyph-name="q.sups" horiz-adv-x="397" 
d="M367 668v-425h-128v100q-29 -19 -72 -19q-65 0 -106 51t-41 125q0 73 42 123.5t105 50.5q48 0 82 -34v28h118zM239 499q0 58 -45 58q-22 0 -34 -16.5t-12 -41.5t12 -41.5t34 -16.5q45 0 45 58z" />
    <glyph glyph-name="r.sups" horiz-adv-x="271" 
d="M261 674v-127q-56 0 -79.5 -20t-23.5 -62v-134h-128v337h118v-46q28 52 113 52z" />
    <glyph glyph-name="s.sups" horiz-adv-x="323" 
d="M20 364l39 85q38 -29 102 -29q3 0 9 1t14.5 4.5t8.5 9.5q0 3 -2 5t-6 3.5t-8.5 2.5t-11 3t-11.5 3q-120 28 -120 114q0 50 43 79t98 29q71 0 124 -32l-36 -80q-43 19 -84 19q-23 0 -23 -10q0 -9 25 -17.5t54.5 -16t54.5 -33t25 -65.5q0 -41 -28 -69t-61 -37.5t-66 -9.5
q-97 0 -140 41z" />
    <glyph glyph-name="t.sups" horiz-adv-x="291" 
d="M63 668v51l128 30v-81h82v-99h-81v-119q0 -25 26 -25q16 0 40 11l28 -80q-45 -32 -113 -32q-46 0 -78 26t-32 88v131h-46v99h46z" />
    <glyph glyph-name="u.sups" horiz-adv-x="391" 
d="M361 668v-337h-118v34q-40 -40 -92 -40q-34 0 -57.5 9.5t-36 23.5t-19.5 39.5t-8.5 47t-1.5 55.5v168h128v-168q0 -30 6.5 -44t26.5 -14q21 0 32.5 16t11.5 39v171h128z" />
    <glyph glyph-name="v.sups" horiz-adv-x="386" 
d="M124 331l-121 337h129l61 -201l61 201h129l-121 -337h-138z" />
    <glyph glyph-name="w.sups" horiz-adv-x="528" 
d="M107 331l-104 337h129l42 -180l24 180h131l26 -180l40 180h130l-104 -337h-125l-32 191l-32 -191h-125z" />
    <glyph glyph-name="x.sups" horiz-adv-x="362" 
d="M181 576l46 92h132l-102 -163l102 -174h-131l-47 85l-47 -85h-131l102 174l-102 163h132z" />
    <glyph glyph-name="y.sups" horiz-adv-x="377" 
d="M66 234v114q15 0 27 4t16.5 7.5t10.5 10.5l5 7l5 9l-127 282h128l58 -175l57 175h128l-152 -351q-36 -83 -156 -83z" />
    <glyph glyph-name="z.sups" horiz-adv-x="290" 
d="M5 331v91l108 133h-102v113h270v-87l-109 -132h113v-118h-280z" />
    <glyph glyph-name="commaaccentcomb" horiz-adv-x="450" 
d="M138 -235q56 52 56 107q0 34 -26 60l108 38q33 -39 33 -78q0 -64 -80 -127h-91z" />
    <glyph glyph-name="zero.dnom" horiz-adv-x="440" 
d="M163 227q0 -113 55 -113t55 113t-55 113t-55 -113zM422 227q0 -105 -57 -171.5t-147 -66.5t-147 66.5t-57 171.5t57 171.5t147 66.5t147 -66.5t57 -171.5z" />
    <glyph glyph-name="one.dnom" horiz-adv-x="412" 
d="M179 4v288l-78 -48l-56 93l168 130h106v-463h-140z" />
    <glyph glyph-name="two.dnom" horiz-adv-x="429" 
d="M34 4v80q86 58 140.5 121t54.5 104q0 40 -46 40q-39 0 -82 -39l-63 89q40 41 88.5 57.5t84.5 16.5q68 0 118 -35.5t50 -108.5q0 -113 -120 -202h134v-123h-359z" />
    <glyph glyph-name="three.dnom" horiz-adv-x="472" 
d="M52 42l61 96q32 -28 90 -28q30 0 50.5 11.5t20.5 35.5q0 18 -17 30.5t-50 12.5q-22 0 -52 -14l-44 75l110 77h-139v123h314v-112l-88 -64q49 -11 82.5 -45.5t33.5 -87.5q0 -78 -57 -119.5t-144 -41.5q-108 0 -171 51z" />
    <glyph glyph-name="four.dnom" horiz-adv-x="468" 
d="M253 2v71h-223v94l140 306l120 -59l-104 -218h67v90h140v-90h39v-123h-39v-71h-140z" />
    <glyph glyph-name="five.dnom" horiz-adv-x="477" 
d="M53 43l51 101q41 -31 95 -31q35 0 56 14.5t21 36.5q0 18 -18.5 30t-53.5 12q-37 0 -71 -19l-53 40v240h307v-118h-167v-48q2 1 12 1q85 0 135.5 -35t50.5 -107q0 -81 -56 -122t-145 -41q-105 0 -164 46z" />
    <glyph glyph-name="six.dnom" horiz-adv-x="453" 
d="M39 163q0 59 49 129l137 201l101 -74l-61 -92q63 -2 109 -48t46 -109q0 -79 -53 -129t-136 -50q-85 0 -138.5 47.5t-53.5 124.5zM182 161q0 -50 49 -50q47 0 47 50q0 22 -12 37t-35 15q-24 0 -36.5 -14.5t-12.5 -37.5z" />
    <glyph glyph-name="seven.dnom" horiz-adv-x="414" 
d="M71 4l161 340h-212v123h378v-76l-169 -387h-158z" />
    <glyph glyph-name="eight.dnom" horiz-adv-x="453" 
d="M227 467q78 0 123.5 -37.5t45.5 -92.5q0 -71 -50 -101q35 -11 52 -41t17 -67q0 -63 -49.5 -100t-138.5 -37q-90 0 -139.5 37t-49.5 100q0 36 17.5 66.5t52.5 41.5q-50 29 -50 101q0 55 45.5 92.5t123.5 37.5zM227 196q-24 0 -36.5 -13.5t-12.5 -34.5t12.5 -34.5
t36.5 -13.5t37 13.5t13 34.5t-13 34.5t-37 13.5zM227 360q-24 0 -36 -13.5t-12 -34.5t12 -33.5t36 -12.5q48 0 48 46q0 48 -48 48z" />
    <glyph glyph-name="nine.dnom" horiz-adv-x="453" 
d="M420 297q0 -59 -49 -129l-137 -201l-101 74l61 92q-63 2 -109 48t-46 109q0 79 53 129t136 50q85 0 138.5 -47.5t53.5 -124.5zM277 299q0 50 -49 50q-47 0 -47 -50q0 -22 12 -37t35 -15q24 0 36.5 14.5t12.5 37.5z" />
    <glyph glyph-name="at.cap" horiz-adv-x="925" 
d="M63 303q0 163 120.5 278t290.5 115q161 0 274.5 -101.5t113.5 -245.5q0 -115 -46.5 -182t-125.5 -67q-77 0 -110 61q-48 -69 -142 -69q-78 0 -133 61.5t-55 148.5q0 86 55 147t133 61q70 0 112 -42v33h115v-242q0 -52 32 -52q26 0 42.5 38.5t16.5 103.5q0 113 -72.5 178
t-209.5 65q-121 0 -205.5 -84.5t-84.5 -204.5q0 -125 79.5 -203.5t199.5 -78.5q80 0 159 36l41 -86q-86 -50 -204 -50q-174 0 -285 107t-111 275zM372 302q0 -45 24.5 -74.5t68.5 -29.5q38 0 61.5 29t23.5 75q0 45 -23 73.5t-62 28.5q-44 0 -68.5 -29t-24.5 -73z" />
    <glyph glyph-name="zero.numerator" horiz-adv-x="440" 
d="M163 422q0 -113 55 -113t55 113t-55 113t-55 -113zM422 422q0 -105 -57 -171.5t-147 -66.5t-147 66.5t-57 171.5t57 171.5t147 66.5t147 -66.5t57 -171.5z" />
    <glyph glyph-name="one.numerator" horiz-adv-x="412" 
d="M179 191v288l-78 -48l-56 93l168 130h106v-463h-140z" />
    <glyph glyph-name="two.numerator" horiz-adv-x="429" 
d="M34 191v80q86 58 140.5 121t54.5 104q0 40 -46 40q-39 0 -82 -39l-63 89q40 41 88.5 57.5t84.5 16.5q68 0 118 -35.5t50 -108.5q0 -113 -120 -202h134v-123h-359z" />
    <glyph glyph-name="three.numerator" horiz-adv-x="472" 
d="M52 235l61 96q32 -28 90 -28q30 0 50.5 11.5t20.5 35.5q0 18 -17 30.5t-50 12.5q-22 0 -52 -14l-44 75l110 77h-139v123h314v-112l-88 -64q49 -11 82.5 -45.5t33.5 -87.5q0 -78 -57 -119.5t-144 -41.5q-108 0 -171 51z" />
    <glyph glyph-name="four.numerator" horiz-adv-x="468" 
d="M253 191v71h-223v94l140 306l120 -59l-104 -218h67v90h140v-90h39v-123h-39v-71h-140z" />
    <glyph glyph-name="five.numerator" horiz-adv-x="477" 
d="M53 230l51 101q41 -31 95 -31q35 0 56 14.5t21 36.5q0 18 -18.5 30t-53.5 12q-37 0 -71 -19l-53 40v240h307v-118h-167v-48q2 1 12 1q85 0 135.5 -35t50.5 -107q0 -81 -56 -122t-145 -41q-105 0 -164 46z" />
    <glyph glyph-name="six.numerator" horiz-adv-x="453" 
d="M39 356q0 59 49 129l137 201l101 -74l-61 -92q63 -2 109 -48t46 -109q0 -79 -53 -129t-136 -50q-85 0 -138.5 47.5t-53.5 124.5zM182 354q0 -50 49 -50q47 0 47 50q0 22 -12 37t-35 15q-24 0 -36.5 -14.5t-12.5 -37.5z" />
    <glyph glyph-name="seven.numerator" horiz-adv-x="414" 
d="M71 191l161 340h-212v123h378v-76l-169 -387h-158z" />
    <glyph glyph-name="eight.numerator" horiz-adv-x="453" 
d="M227 660q78 0 123.5 -37.5t45.5 -92.5q0 -71 -50 -101q35 -11 52 -41t17 -67q0 -63 -49.5 -100t-138.5 -37q-90 0 -139.5 37t-49.5 100q0 36 17.5 66.5t52.5 41.5q-50 29 -50 101q0 55 45.5 92.5t123.5 37.5zM227 389q-24 0 -36.5 -13.5t-12.5 -34.5t12.5 -34.5
t36.5 -13.5t37 13.5t13 34.5t-13 34.5t-37 13.5zM227 553q-24 0 -36 -13.5t-12 -34.5t12 -33.5t36 -12.5q48 0 48 46q0 48 -48 48z" />
    <glyph glyph-name="nine.numerator" horiz-adv-x="453" 
d="M420 490q0 -59 -49 -129l-137 -201l-101 74l61 92q-63 2 -109 48t-46 109q0 79 53 129t136 50q85 0 138.5 -47.5t53.5 -124.5zM277 492q0 50 -49 50q-47 0 -47 -50q0 -22 12 -37t35 -15q24 0 36.5 14.5t12.5 37.5z" />
    <glyph glyph-name="comma.dnom" horiz-adv-x="209" 
d="M9 -86l54 257h127l-100 -257h-81z" />
    <glyph glyph-name="period.dnom" horiz-adv-x="209" 
d="M24 72q0 34 24.5 58.5t57.5 24.5q34 0 58.5 -24.5t24.5 -58.5t-24.5 -58t-58.5 -24t-58 24t-24 58z" />
    <glyph glyph-name="period.numerator" horiz-adv-x="209" 
d="M24 264q0 34 24.5 58.5t57.5 24.5q34 0 58.5 -24.5t24.5 -58.5t-24.5 -58t-58.5 -24t-58 24t-24 58z" />
    <glyph glyph-name="comma.numerator" horiz-adv-x="209" 
d="M9 106l54 257h127l-100 -257h-81z" />
    <glyph glyph-name="A.small" horiz-adv-x="654" 
d="M227 564h200l219 -564h-192l-19 55h-216l-19 -55h-192zM267 200h120l-60 175z" />
    <glyph glyph-name="B.small" horiz-adv-x="605" 
d="M50 0v564h286q199 0 199 -150q0 -66 -46 -108q91 -40 91 -138q0 -168 -229 -168h-301zM238 228v-68h106q25 0 38 6.5t13 27.5t-13 27.5t-38 6.5h-106zM238 404v-68h87q44 0 44 33q0 35 -44 35h-87z" />
    <glyph glyph-name="C.small" horiz-adv-x="567" 
d="M434 197l125 -122q-89 -87 -222 -87q-131 0 -218 83.5t-87 208.5t87.5 208t217.5 83q128 0 214 -80l-124 -123q-33 33 -85 33t-82.5 -33.5t-30.5 -87.5t30 -88t79 -34q57 0 96 39z" />
    <glyph glyph-name="D.small" horiz-adv-x="632" 
d="M238 160h49q53 0 84.5 34t31.5 88t-31.5 88t-84.5 34h-49v-244zM50 0v564h240q140 0 225 -81.5t85 -200.5t-85 -200.5t-225 -81.5h-240z" />
    <glyph glyph-name="E.small" horiz-adv-x="544" 
d="M50 0v564h465v-160h-277v-47h258v-150h-258v-47h287v-160h-475z" />
    <glyph glyph-name="F.small" horiz-adv-x="518" 
d="M50 0v564h449v-160h-261v-47h196v-150h-196v-207h-188z" />
    <glyph glyph-name="G.small" horiz-adv-x="630" 
d="M32 280q0 125 87 208t218 83q129 0 214 -79l-124 -123q-33 33 -85 33t-82.5 -33.5t-30.5 -88.5q0 -54 30 -88t79 -34q45 0 72 19v43h-56v99h224v-222q-35 -51 -99.5 -80t-141.5 -29q-131 0 -218 83.5t-87 208.5z" />
    <glyph glyph-name="H.small" horiz-adv-x="609" 
d="M50 0v564h188v-195h133v195h188v-564h-188v209h-133v-209h-188z" />
    <glyph glyph-name="I.small" horiz-adv-x="288" 
d="M50 0v564h188v-564h-188z" />
    <glyph glyph-name="J.small" horiz-adv-x="552" 
d="M16 130l126 100q16 -37 39 -55t62 -18q74 0 74 81v326h188v-318q0 -258 -258 -258q-81 0 -142 40t-89 102z" />
    <glyph glyph-name="K.small" horiz-adv-x="616" 
d="M50 0v564h188v-251l131 251h216l-175 -263l198 -301h-220l-81 146l-69 -98v-48h-188z" />
    <glyph glyph-name="L.small" horiz-adv-x="545" 
d="M50 0v564h188v-404h288v-160h-476z" />
    <glyph glyph-name="M.small" horiz-adv-x="703" 
d="M50 0v564h156l145 -196l146 196h156v-564h-188v244l-114 -146l-113 146v-244h-188z" />
    <glyph glyph-name="N.small" horiz-adv-x="622" 
d="M50 0v564h168l166 -255v255h188v-564h-168l-166 255v-255h-188z" />
    <glyph glyph-name="O.small" horiz-adv-x="674" 
d="M445 280q0 54 -29.5 88t-77.5 34q-49 0 -79 -34t-30 -88t30 -88t79 -34q48 0 77.5 34t29.5 88zM32 280q0 127 84.5 209.5t220.5 82.5t220.5 -82.5t84.5 -209.5t-84.5 -209.5t-220.5 -82.5t-220.5 82.5t-84.5 209.5z" />
    <glyph glyph-name="P.small" horiz-adv-x="613" 
d="M50 0v564h253q128 0 197 -64t69 -162t-69 -161.5t-197 -63.5h-65v-113h-188zM305 404h-67v-132h66q32 0 50.5 18.5t18.5 47.5t-18.5 47.5t-49.5 18.5z" />
    <glyph glyph-name="Q.small" horiz-adv-x="674" 
d="M546 -13l-45 44q-75 -43 -164 -43q-131 0 -218 83.5t-87 208.5t87 208.5t218 83.5t218 -83.5t87 -208.5q0 -106 -65 -185l39 -38zM445 280q0 54 -29.5 88t-77.5 34q-49 0 -79 -34t-30 -88t30 -88t79 -34q16 0 33 5l-55 55l71 69l52 -52q6 20 6 45z" />
    <glyph glyph-name="R.small" horiz-adv-x="612" 
d="M50 0v564h253q128 0 197 -64t69 -162q0 -101 -80 -168l99 -170h-194l-53 113h-103v-113h-188zM238 272h66q32 0 50.5 18.5t18.5 47.5t-18.5 47.5t-50.5 18.5h-66v-132z" />
    <glyph glyph-name="S.small" horiz-adv-x="543" 
d="M28 57l65 141q51 -43 159 -43q61 0 61 23q0 14 -27.5 23.5t-66.5 20t-78.5 28t-67 55t-27.5 92.5q0 88 65.5 131.5t161.5 43.5q131 0 221 -55l-62 -141q-69 37 -148 37q-35 0 -35 -17q0 -13 27.5 -23.5t66.5 -22.5t78 -30t66.5 -55.5t27.5 -90.5t-23 -91t-61.5 -57
t-77.5 -27.5t-82 -8.5q-154 0 -243 67z" />
    <glyph glyph-name="T.small" horiz-adv-x="568" 
d="M549 564v-160h-171v-404h-188v404h-171v160h530z" />
    <glyph glyph-name="U.small" horiz-adv-x="604" 
d="M302 158q29 0 48 21t19 57v328h188v-334q0 -113 -73 -177.5t-182 -64.5t-182 64.5t-73 177.5v334h188v-328q0 -36 19 -57t48 -21z" />
    <glyph glyph-name="V.small" horiz-adv-x="594" 
d="M586 564l-184 -564h-210l-184 564h187l102 -362l102 362h187z" />
    <glyph glyph-name="W.small" horiz-adv-x="832" 
d="M151 0l-143 564h181l84 -344l58 344h168l59 -344l85 344h181l-143 -564h-212l-54 318l-52 -318h-212z" />
    <glyph glyph-name="X.small" horiz-adv-x="566" 
d="M8 0l178 291l-169 273h206l60 -126l60 126h206l-169 -273l178 -291h-204l-71 149l-71 -149h-204z" />
    <glyph glyph-name="Y.small" horiz-adv-x="604" 
d="M8 564h200l94 -177l94 177h200l-200 -322v-242h-188v242z" />
    <glyph glyph-name="Z.small" horiz-adv-x="523" 
d="M19 0v134l240 270h-228v160h466v-136l-239 -268h246v-160h-485z" />
    <glyph glyph-name="Agrave.small" horiz-adv-x="654" 
d="M227 564h200l219 -564h-192l-19 55h-216l-19 -55h-192zM267 200h120l-60 175zM275 605l-145 179h174l105 -179h-134z" />
    <glyph glyph-name="Aacute.small" horiz-adv-x="654" 
d="M227 564h200l219 -564h-192l-19 55h-216l-19 -55h-192zM267 200h120l-60 175zM243 605l105 179h175l-145 -179h-135z" />
    <glyph glyph-name="Acircumflex.small" horiz-adv-x="654" 
d="M227 564h200l219 -564h-192l-19 55h-216l-19 -55h-192zM267 200h120l-60 175zM108 605l132 179h173l132 -179h-127l-92 98l-90 -98h-128z" />
    <glyph glyph-name="Atilde.small" horiz-adv-x="654" 
d="M131 602q0 73 29.5 115t76.5 42q33 0 67 -14.5t58 -29t34 -14.5q22 0 29 15t7 43h90q0 -73 -29.5 -115t-76.5 -42q-33 0 -67 14.5t-58 29t-34 14.5q-22 0 -29 -15t-7 -43h-90zM227 564h200l219 -564h-192l-19 55h-216l-19 -55h-192zM267 200h120l-60 175z" />
    <glyph glyph-name="Adieresis.small" horiz-adv-x="654" 
d="M136 683q0 33 23.5 56t56.5 23t56.5 -23t23.5 -56t-23.5 -56t-56.5 -23t-56.5 23t-23.5 56zM357 683q0 33 23.5 56t56.5 23t56.5 -23t23.5 -56t-23.5 -56t-56.5 -23t-56.5 23t-23.5 56zM227 564h200l219 -564h-192l-19 55h-216l-19 -55h-192zM267 200h120l-60 175z" />
    <glyph glyph-name="Amacron.small" horiz-adv-x="654" 
d="M227 564h200l219 -564h-192l-19 55h-216l-19 -55h-192zM267 200h120l-60 175zM193 637v105h266v-105h-266z" />
    <glyph glyph-name="Abreve.small" horiz-adv-x="654" 
d="M326 602q-66 0 -107 45t-41 108h91q0 -22 16 -37.5t41 -15.5q24 0 39.5 15.5t15.5 37.5h93q0 -63 -41 -108t-107 -45zM227 564h200l219 -564h-192l-19 55h-216l-19 -55h-192zM267 200h120l-60 175z" />
    <glyph glyph-name="Aring.small" horiz-adv-x="654" 
d="M209 702q0 49 34 83t83 34t83 -34t34 -83t-34 -83t-83 -34t-83 34t-34 83zM285 702q0 -18 12 -31t29 -13t29 13t12 31t-12 30.5t-29 12.5t-29 -12.5t-12 -30.5zM227 564h200l219 -564h-192l-19 55h-216l-19 -55h-192zM267 200h120l-60 175z" />
    <glyph glyph-name="Aringacute.small" horiz-adv-x="654" 
d="M227 564h200l219 -564h-192l-19 55h-216l-19 -55h-192zM209 702q0 56 44 92l77 179h129l-96 -160q36 -12 58 -42t22 -69q0 -49 -34 -83t-83 -34t-83 34t-34 83zM267 200h120l-60 175zM285 702q0 -18 12 -31t29 -13t29 13t12 31t-12 30.5t-29 12.5t-29 -12.5t-12 -30.5z
" />
    <glyph glyph-name="Aogonek.small" horiz-adv-x="654" 
d="M227 564h200l219 -564h-106q-30 -30 -30 -70q0 -23 14.5 -37.5t42.5 -14.5q7 0 16.5 2.5t10.5 2.5l21 -67q-49 -36 -110 -36q-38 0 -66 24.5t-28 67.5q0 67 43 128l-19 55h-216l-19 -55h-192zM267 200h120l-60 175z" />
    <glyph glyph-name="AE.small" horiz-adv-x="907" 
d="M8 0l323 564h547v-160h-277v-47h258v-150h-258v-47h287v-160h-475v55h-169l-27 -55h-209zM312 200h101v211z" />
    <glyph glyph-name="AEacute.small" horiz-adv-x="907" 
d="M8 0l323 564h547v-160h-277v-47h258v-150h-258v-47h287v-160h-475v55h-169l-27 -55h-209zM312 200h101v211zM519 605l105 179h175l-145 -179h-135z" />
    <glyph glyph-name="Cacute.small" horiz-adv-x="567" 
d="M434 197l125 -122q-89 -87 -222 -87q-131 0 -218 83.5t-87 208.5t87.5 208t217.5 83q128 0 214 -80l-124 -123q-33 33 -85 33t-82.5 -33.5t-30.5 -87.5t30 -88t79 -34q57 0 96 39zM234 605l105 179h175l-145 -179h-135z" />
    <glyph glyph-name="Ccircumflex.small" horiz-adv-x="567" 
d="M434 197l125 -122q-89 -87 -222 -87q-131 0 -218 83.5t-87 208.5t87.5 208t217.5 83q128 0 214 -80l-124 -123q-33 33 -85 33t-82.5 -33.5t-30.5 -87.5t30 -88t79 -34q57 0 96 39zM120 605l132 179h173l132 -179h-127l-92 98l-90 -98h-128z" />
    <glyph glyph-name="Ccaron.small" horiz-adv-x="567" 
d="M434 197l125 -122q-89 -87 -222 -87q-131 0 -218 83.5t-87 208.5t87.5 208t217.5 83q128 0 214 -80l-124 -123q-33 33 -85 33t-82.5 -33.5t-30.5 -87.5t30 -88t79 -34q57 0 96 39zM253 605l-132 179h127l91 -98l91 98h128l-132 -179h-173z" />
    <glyph glyph-name="Cdotaccent.small" horiz-adv-x="567" 
d="M434 197l125 -122q-89 -87 -222 -87q-131 0 -218 83.5t-87 208.5t87.5 208t217.5 83q128 0 214 -80l-124 -123q-33 33 -85 33t-82.5 -33.5t-30.5 -87.5t30 -88t79 -34q57 0 96 39zM255 705q0 37 26.5 63.5t64.5 26.5t64.5 -26.5t26.5 -63.5t-26.5 -63.5t-64.5 -26.5
t-64.5 26.5t-26.5 63.5z" />
    <glyph glyph-name="Ccedilla.small" horiz-adv-x="567" 
d="M184 -193l38 64q38 -21 74 -21q22 0 34.5 10.5t12.5 26.5q0 18 -15 18q-14 0 -25 -27l-86 25l54 91q-106 20 -172.5 98.5t-66.5 187.5q0 125 87.5 208t217.5 83q128 0 214 -80l-124 -123q-33 33 -85 33t-82.5 -33.5t-30.5 -87.5t30 -88t79 -34q57 0 96 39l125 -122
q-76 -74 -190 -85l-13 -22h4q44 0 66 -25t22 -56q0 -41 -35.5 -76t-108.5 -35q-75 0 -120 31z" />
    <glyph glyph-name="Dcaron.small" horiz-adv-x="632" 
d="M238 160h49q53 0 84.5 34t31.5 88t-31.5 88t-84.5 34h-49v-244zM50 0v564h240q140 0 225 -81.5t85 -200.5t-85 -200.5t-225 -81.5h-240zM186 605l-132 179h127l91 -98l91 98h128l-132 -179h-173z" />
    <glyph glyph-name="Dcroat.small" horiz-adv-x="632" 
d="M50 0v237h-56v99h56v228h240q140 0 225 -81.5t85 -200.5t-85 -200.5t-225 -81.5h-240zM238 160h49q53 0 84.5 34t31.5 88t-31.5 88t-84.5 34h-49v-68h67v-99h-67v-77z" />
    <glyph glyph-name="Egrave.small" horiz-adv-x="554" 
d="M50 0v564h465v-160h-277v-47h258v-150h-258v-47h287v-160h-475zM271 605l-145 179h174l105 -179h-134z" />
    <glyph glyph-name="Eacute.small" horiz-adv-x="554" 
d="M50 0v564h465v-160h-277v-47h258v-150h-258v-47h287v-160h-475zM186 605l105 179h175l-145 -179h-135z" />
    <glyph glyph-name="Ecircumflex.small" horiz-adv-x="554" 
d="M50 0v564h465v-160h-277v-47h258v-150h-258v-47h287v-160h-475zM67 605l132 179h173l132 -179h-127l-92 98l-90 -98h-128z" />
    <glyph glyph-name="Ecaron.small" horiz-adv-x="554" 
d="M50 0v564h465v-160h-277v-47h258v-150h-258v-47h287v-160h-475zM207 605l-132 179h127l91 -98l91 98h128l-132 -179h-173z" />
    <glyph glyph-name="Edieresis.small" horiz-adv-x="554" 
d="M103 683q0 33 23.5 56t56.5 23t56.5 -23t23.5 -56t-23.5 -56t-56.5 -23t-56.5 23t-23.5 56zM324 683q0 33 23.5 56t56.5 23t56.5 -23t23.5 -56t-23.5 -56t-56.5 -23t-56.5 23t-23.5 56zM50 0v564h465v-160h-277v-47h258v-150h-258v-47h287v-160h-475z" />
    <glyph glyph-name="Emacron.small" horiz-adv-x="554" 
d="M50 0v564h465v-160h-277v-47h258v-150h-258v-47h287v-160h-475zM160 637v105h266v-105h-266z" />
    <glyph glyph-name="Ebreve.small" horiz-adv-x="554" 
d="M291 602q-66 0 -107 45t-41 108h91q0 -22 16 -37.5t41 -15.5q24 0 39.5 15.5t15.5 37.5h93q0 -63 -41 -108t-107 -45zM50 0v564h465v-160h-277v-47h258v-150h-258v-47h287v-160h-475z" />
    <glyph glyph-name="Edotaccent.small" horiz-adv-x="554" 
d="M50 0v564h465v-160h-277v-47h258v-150h-258v-47h287v-160h-475zM202 705q0 37 26.5 63.5t64.5 26.5t64.5 -26.5t26.5 -63.5t-26.5 -63.5t-64.5 -26.5t-64.5 26.5t-26.5 63.5z" />
    <glyph glyph-name="Eogonek.small" horiz-adv-x="554" 
d="M50 0v564h465v-160h-277v-47h258v-150h-258v-47h287v-160h-77q-30 -30 -30 -70q0 -23 14.5 -37.5t42.5 -14.5q7 0 16.5 2.5t10.5 2.5l21 -67q-49 -36 -110 -36q-38 0 -66 24.5t-28 67.5q0 66 42 128h-311z" />
    <glyph glyph-name="Gcircumflex.small" horiz-adv-x="630" 
d="M32 280q0 125 87 208t218 83q129 0 214 -79l-124 -123q-33 33 -85 33t-82.5 -33.5t-30.5 -88.5q0 -54 30 -88t79 -34q45 0 72 19v43h-56v99h224v-222q-35 -51 -99.5 -80t-141.5 -29q-131 0 -218 83.5t-87 208.5zM116 605l132 179h173l132 -179h-127l-92 98l-90 -98h-128z
" />
    <glyph glyph-name="Gbreve.small" horiz-adv-x="630" 
d="M32 280q0 125 87 208t218 83q129 0 214 -79l-124 -123q-33 33 -85 33t-82.5 -33.5t-30.5 -88.5q0 -54 30 -88t79 -34q45 0 72 19v43h-56v99h224v-222q-35 -51 -99.5 -80t-141.5 -29q-131 0 -218 83.5t-87 208.5zM335 602q-66 0 -107 45t-41 108h91q0 -22 16 -37.5
t41 -15.5q24 0 39.5 15.5t15.5 37.5h93q0 -63 -41 -108t-107 -45z" />
    <glyph glyph-name="Gdotaccent.small" horiz-adv-x="630" 
d="M32 280q0 125 87 208t218 83q129 0 214 -79l-124 -123q-33 33 -85 33t-82.5 -33.5t-30.5 -88.5q0 -54 30 -88t79 -34q45 0 72 19v43h-56v99h224v-222q-35 -51 -99.5 -80t-141.5 -29q-131 0 -218 83.5t-87 208.5zM244 705q0 37 26.5 63.5t64.5 26.5t64.5 -26.5t26.5 -63.5
t-26.5 -63.5t-64.5 -26.5t-64.5 26.5t-26.5 63.5z" />
    <glyph glyph-name="Gcommaaccent.small" horiz-adv-x="630" 
d="M32 280q0 125 87 208t218 83q129 0 214 -79l-124 -123q-33 33 -85 33t-82.5 -33.5t-30.5 -88.5q0 -54 30 -88t79 -34q45 0 72 19v43h-56v99h224v-222q-35 -51 -99.5 -80t-141.5 -29q-131 0 -218 83.5t-87 208.5zM270 -235q56 52 56 107q0 34 -26 60l108 38q33 -39 33 -78
q0 -64 -80 -127h-91z" />
    <glyph glyph-name="Hcircumflex.small" horiz-adv-x="609" 
d="M50 0v564h188v-195h133v195h188v-564h-188v209h-133v-209h-188zM86 605l132 179h173l132 -179h-127l-92 98l-90 -98h-128z" />
    <glyph glyph-name="Hbar.small" horiz-adv-x="609" 
d="M50 0v417h-35v99h35v48h188v-48h133v48h188v-48h35v-99h-35v-417h-188v209h-133v-209h-188zM238 369h133v48h-133v-48z" />
    <glyph glyph-name="Igrave.small" horiz-adv-x="288" 
d="M50 0v564h188v-564h-188zM97 605l-145 179h174l105 -179h-134z" />
    <glyph glyph-name="Iacute.small" horiz-adv-x="288" 
d="M57 605l105 179h175l-145 -179h-135zM50 0v564h188v-564h-188z" />
    <glyph glyph-name="Icircumflex.small" horiz-adv-x="288" 
d="M-75 605l132 179h173l132 -179h-127l-92 98l-90 -98h-128zM50 0v564h188v-564h-188z" />
    <glyph glyph-name="Itilde.small" horiz-adv-x="288" 
d="M-53 602q0 73 29.5 115t76.5 42q33 0 67 -14.5t58 -29t34 -14.5q22 0 29 15t7 43h90q0 -73 -29.5 -115t-76.5 -42q-33 0 -67 14.5t-58 29t-34 14.5q-22 0 -29 -15t-7 -43h-90zM50 0v564h188v-564h-188z" />
    <glyph glyph-name="Idieresis.small" horiz-adv-x="288" 
d="M-47 683q0 33 23.5 56t56.5 23t56.5 -23t23.5 -56t-23.5 -56t-56.5 -23t-56.5 23t-23.5 56zM174 683q0 33 23.5 56t56.5 23t56.5 -23t23.5 -56t-23.5 -56t-56.5 -23t-56.5 23t-23.5 56zM50 0v564h188v-564h-188z" />
    <glyph glyph-name="Imacron.small" horiz-adv-x="288" 
d="M11 637v105h266v-105h-266zM50 0v564h188v-564h-188z" />
    <glyph glyph-name="Ibreve.small" horiz-adv-x="288" 
d="M144 602q-66 0 -107 45t-41 108h91q0 -22 16 -37.5t41 -15.5q24 0 39.5 15.5t15.5 37.5h93q0 -63 -41 -108t-107 -45zM50 0v564h188v-564h-188z" />
    <glyph glyph-name="Idotaccent.small" horiz-adv-x="288" 
d="M53 705q0 37 26.5 63.5t64.5 26.5t64.5 -26.5t26.5 -63.5t-26.5 -63.5t-64.5 -26.5t-64.5 26.5t-26.5 63.5zM50 0v564h188v-564h-188z" />
    <glyph glyph-name="Iogonek.small" horiz-adv-x="288" 
d="M4 -128q0 69 46 133v559h188v-564h-105q-30 -30 -30 -70q0 -23 14.5 -37.5t42.5 -14.5q7 0 16.5 2.5t10.5 2.5l21 -67q-49 -36 -110 -36q-38 0 -66 24.5t-28 67.5z" />
    <glyph glyph-name="Jcircumflex.small" horiz-adv-x="552" 
d="M16 130l126 100q16 -37 39 -55t62 -18q74 0 74 81v326h188v-318q0 -258 -258 -258q-81 0 -142 40t-89 102zM192 605l132 179h173l132 -179h-127l-92 98l-90 -98h-128z" />
    <glyph glyph-name="Kcommaaccent.small" horiz-adv-x="616" 
d="M197 -235q56 52 56 107q0 34 -26 60l108 38q33 -39 33 -78q0 -64 -80 -127h-91zM50 0v564h188v-251l131 251h216l-175 -263l198 -301h-220l-81 146l-69 -98v-48h-188z" />
    <glyph glyph-name="Lacute.small" horiz-adv-x="545" 
d="M50 0v564h188v-404h288v-160h-476zM51 605l105 179h175l-145 -179h-135z" />
    <glyph glyph-name="Lcaron.small" horiz-adv-x="545" 
d="M50 0v564h188v-404h288v-160h-476zM285 350q61 61 61 122q0 37 -28 68l116 43q36 -45 36 -89q0 -72 -87 -144h-98z" />
    <glyph glyph-name="Lcommaaccent.small" horiz-adv-x="545" 
d="M50 0v564h188v-404h288v-160h-476zM202 -235q56 52 56 107q0 34 -26 60l108 38q33 -39 33 -78q0 -64 -80 -127h-91z" />
    <glyph glyph-name="Lslash.small" horiz-adv-x="545" 
d="M50 0v253l-64 -26v98l64 28v211h188v-131l124 55v-100l-124 -54v-174h288v-160h-476z" />
    <glyph glyph-name="Nacute.small" horiz-adv-x="622" 
d="M50 0v564h168l166 -255v255h188v-564h-168l-166 255v-255h-188zM206 605l105 179h175l-145 -179h-135z" />
    <glyph glyph-name="Ncaron.small" horiz-adv-x="622" 
d="M50 0v564h168l166 -255v255h188v-564h-168l-166 255v-255h-188zM225 605l-132 179h127l91 -98l91 98h128l-132 -179h-173z" />
    <glyph glyph-name="Ntilde.small" horiz-adv-x="622" 
d="M116 602q0 73 29.5 115t76.5 42q33 0 67 -14.5t58 -29t34 -14.5q22 0 29 15t7 43h90q0 -73 -29.5 -115t-76.5 -42q-33 0 -67 14.5t-58 29t-34 14.5q-22 0 -29 -15t-7 -43h-90zM50 0v564h168l166 -255v255h188v-564h-168l-166 255v-255h-188z" />
    <glyph glyph-name="Ncommaaccent.small" horiz-adv-x="622" 
d="M50 0v564h168l166 -255v255h188v-564h-168l-166 255v-255h-188zM233 -235q56 52 56 107q0 34 -26 60l108 38q33 -39 33 -78q0 -64 -80 -127h-91z" />
    <glyph glyph-name="Ograve.small" horiz-adv-x="674" 
d="M445 280q0 54 -29.5 88t-77.5 34q-49 0 -79 -34t-30 -88t30 -88t79 -34q48 0 77.5 34t29.5 88zM32 280q0 127 84.5 209.5t220.5 82.5t220.5 -82.5t84.5 -209.5t-84.5 -209.5t-220.5 -82.5t-220.5 82.5t-84.5 209.5zM289 605l-145 179h174l105 -179h-134z" />
    <glyph glyph-name="Oacute.small" horiz-adv-x="674" 
d="M445 280q0 54 -29.5 88t-77.5 34q-49 0 -79 -34t-30 -88t30 -88t79 -34q48 0 77.5 34t29.5 88zM32 280q0 127 84.5 209.5t220.5 82.5t220.5 -82.5t84.5 -209.5t-84.5 -209.5t-220.5 -82.5t-220.5 82.5t-84.5 209.5zM249 605l105 179h175l-145 -179h-135z" />
    <glyph glyph-name="Ocircumflex.small" horiz-adv-x="674" 
d="M445 280q0 54 -29.5 88t-77.5 34q-49 0 -79 -34t-30 -88t30 -88t79 -34q48 0 77.5 34t29.5 88zM32 280q0 127 84.5 209.5t220.5 82.5t220.5 -82.5t84.5 -209.5t-84.5 -209.5t-220.5 -82.5t-220.5 82.5t-84.5 209.5zM119 605l132 179h173l132 -179h-127l-92 98l-90 -98
h-128z" />
    <glyph glyph-name="Otilde.small" horiz-adv-x="674" 
d="M445 280q0 54 -29.5 88t-77.5 34q-49 0 -79 -34t-30 -88t30 -88t79 -34q48 0 77.5 34t29.5 88zM32 280q0 127 84.5 209.5t220.5 82.5t220.5 -82.5t84.5 -209.5t-84.5 -209.5t-220.5 -82.5t-220.5 82.5t-84.5 209.5zM142 602q0 73 29.5 115t76.5 42q33 0 67 -14.5t58 -29
t34 -14.5q22 0 29 15t7 43h90q0 -73 -29.5 -115t-76.5 -42q-33 0 -67 14.5t-58 29t-34 14.5q-22 0 -29 -15t-7 -43h-90z" />
    <glyph glyph-name="Odieresis.small" horiz-adv-x="674" 
d="M445 280q0 54 -29.5 88t-77.5 34q-49 0 -79 -34t-30 -88t30 -88t79 -34q48 0 77.5 34t29.5 88zM32 280q0 127 84.5 209.5t220.5 82.5t220.5 -82.5t84.5 -209.5t-84.5 -209.5t-220.5 -82.5t-220.5 82.5t-84.5 209.5zM147 683q0 33 23.5 56t56.5 23t56.5 -23t23.5 -56
t-23.5 -56t-56.5 -23t-56.5 23t-23.5 56zM368 683q0 33 23.5 56t56.5 23t56.5 -23t23.5 -56t-23.5 -56t-56.5 -23t-56.5 23t-23.5 56z" />
    <glyph glyph-name="Omacron.small" horiz-adv-x="674" 
d="M445 280q0 54 -29.5 88t-77.5 34q-49 0 -79 -34t-30 -88t30 -88t79 -34q48 0 77.5 34t29.5 88zM32 280q0 127 84.5 209.5t220.5 82.5t220.5 -82.5t84.5 -209.5t-84.5 -209.5t-220.5 -82.5t-220.5 82.5t-84.5 209.5zM204 637v105h266v-105h-266z" />
    <glyph glyph-name="Obreve.small" horiz-adv-x="674" 
d="M445 280q0 54 -29.5 88t-77.5 34q-49 0 -79 -34t-30 -88t30 -88t79 -34q48 0 77.5 34t29.5 88zM32 280q0 127 84.5 209.5t220.5 82.5t220.5 -82.5t84.5 -209.5t-84.5 -209.5t-220.5 -82.5t-220.5 82.5t-84.5 209.5zM337 602q-66 0 -107 45t-41 108h91q0 -22 16 -37.5
t41 -15.5q24 0 39.5 15.5t15.5 37.5h93q0 -63 -41 -108t-107 -45z" />
    <glyph glyph-name="Ohungarumlaut.small" horiz-adv-x="674" 
d="M445 280q0 54 -29.5 88t-77.5 34q-49 0 -79 -34t-30 -88t30 -88t79 -34q48 0 77.5 34t29.5 88zM32 280q0 127 84.5 209.5t220.5 82.5t220.5 -82.5t84.5 -209.5t-84.5 -209.5t-220.5 -82.5t-220.5 82.5t-84.5 209.5zM162 606l78 152h173l-134 -152h-117zM367 606l78 152
h173l-134 -152h-117z" />
    <glyph glyph-name="Oslash.small" horiz-adv-x="674" 
d="M32 280q0 127 84.5 209.5t220.5 82.5q63 0 118 -20l48 80l62 -37l-45 -75q58 -39 90 -101.5t32 -138.5q0 -127 -84.5 -209.5t-220.5 -82.5q-65 0 -120 20l-45 -75l-62 37l42 71q-57 39 -88.5 101t-31.5 138zM445 280q0 53 -29 87l-121 -201q21 -8 43 -8q48 0 77.5 34
t29.5 88zM229 280q0 -52 27 -85l121 200q-21 7 -39 7q-49 0 -79 -34t-30 -88z" />
    <glyph glyph-name="Oslashacute.small" horiz-adv-x="674" 
d="M32 280q0 127 84.5 209.5t220.5 82.5q63 0 118 -20l48 80l62 -37l-45 -75q58 -39 90 -101.5t32 -138.5q0 -127 -84.5 -209.5t-220.5 -82.5q-65 0 -120 20l-45 -75l-62 37l42 71q-57 39 -88.5 101t-31.5 138zM445 280q0 53 -29 87l-121 -201q21 -8 43 -8q48 0 77.5 34
t29.5 88zM229 280q0 -52 27 -85l121 200q-21 7 -39 7q-49 0 -79 -34t-30 -88zM248 605l105 179h175l-145 -179h-135z" />
    <glyph glyph-name="OE.small" horiz-adv-x="975" 
d="M32 280q0 127 84.5 209t220.5 82q87 0 149 -34v27h460v-160h-287v-47h268v-150h-268v-47h297v-160h-470v23q-23 -14 -66.5 -24.5t-82.5 -10.5q-136 0 -220.5 82.5t-84.5 209.5zM445 280q0 54 -29.5 88t-77.5 34q-49 0 -79 -34t-30 -88t30 -88t79 -34q48 0 77.5 34
t29.5 88z" />
    <glyph glyph-name="Racute.small" horiz-adv-x="612" 
d="M50 0v564h253q128 0 197 -64t69 -162q0 -101 -80 -168l99 -170h-194l-53 113h-103v-113h-188zM238 272h66q32 0 50.5 18.5t18.5 47.5t-18.5 47.5t-50.5 18.5h-66v-132zM175 605l105 179h175l-145 -179h-135z" />
    <glyph glyph-name="Rcaron.small" horiz-adv-x="612" 
d="M50 0v564h253q128 0 197 -64t69 -162q0 -101 -80 -168l99 -170h-194l-53 113h-103v-113h-188zM238 272h66q32 0 50.5 18.5t18.5 47.5t-18.5 47.5t-50.5 18.5h-66v-132zM204 605l-132 179h127l91 -98l91 98h128l-132 -179h-173z" />
    <glyph glyph-name="Rcommaaccent.small" horiz-adv-x="612" 
d="M50 0v564h253q128 0 197 -64t69 -162q0 -101 -80 -168l99 -170h-194l-53 113h-103v-113h-188zM238 272h66q32 0 50.5 18.5t18.5 47.5t-18.5 47.5t-50.5 18.5h-66v-132zM203 -235q56 52 56 107q0 34 -26 60l108 38q33 -39 33 -78q0 -64 -80 -127h-91z" />
    <glyph glyph-name="Sacute.small" horiz-adv-x="543" 
d="M28 57l65 141q51 -43 159 -43q61 0 61 23q0 14 -27.5 23.5t-66.5 20t-78.5 28t-67 55t-27.5 92.5q0 88 65.5 131.5t161.5 43.5q131 0 221 -55l-62 -141q-69 37 -148 37q-35 0 -35 -17q0 -13 27.5 -23.5t66.5 -22.5t78 -30t66.5 -55.5t27.5 -90.5t-23 -91t-61.5 -57
t-77.5 -27.5t-82 -8.5q-154 0 -243 67zM181 605l105 179h175l-145 -179h-135z" />
    <glyph glyph-name="Scircumflex.small" horiz-adv-x="543" 
d="M28 57l65 141q51 -43 159 -43q61 0 61 23q0 14 -27.5 23.5t-66.5 20t-78.5 28t-67 55t-27.5 92.5q0 88 65.5 131.5t161.5 43.5q131 0 221 -55l-62 -141q-69 37 -148 37q-35 0 -35 -17q0 -13 27.5 -23.5t66.5 -22.5t78 -30t66.5 -55.5t27.5 -90.5t-23 -91t-61.5 -57
t-77.5 -27.5t-82 -8.5q-154 0 -243 67zM62 605l132 179h173l132 -179h-127l-92 98l-90 -98h-128z" />
    <glyph glyph-name="Scaron.small" horiz-adv-x="543" 
d="M28 57l65 141q51 -43 159 -43q61 0 61 23q0 14 -27.5 23.5t-66.5 20t-78.5 28t-67 55t-27.5 92.5q0 88 65.5 131.5t161.5 43.5q131 0 221 -55l-62 -141q-69 37 -148 37q-35 0 -35 -17q0 -13 27.5 -23.5t66.5 -22.5t78 -30t66.5 -55.5t27.5 -90.5t-23 -91t-61.5 -57
t-77.5 -27.5t-82 -8.5q-154 0 -243 67zM192 605l-132 179h127l91 -98l91 98h128l-132 -179h-173z" />
    <glyph glyph-name="Scedilla.small" horiz-adv-x="543" 
d="M132 -193l38 64q38 -21 74 -21q22 0 34.5 10.5t12.5 26.5q0 18 -15 18q-14 0 -25 -27l-86 25l53 89q-119 11 -190 65l65 141q51 -43 159 -43q61 0 61 23q0 14 -27.5 23.5t-66.5 20t-78.5 28t-67 55t-27.5 92.5q0 88 65.5 131.5t161.5 43.5q131 0 221 -55l-62 -141
q-69 37 -148 37q-35 0 -35 -17q0 -13 27.5 -23.5t66.5 -22.5t78 -30t66.5 -55.5t27.5 -90.5q0 -86 -57 -129t-140 -52l-14 -25h4q44 0 66 -25t22 -56q0 -41 -35.5 -76t-108.5 -35q-75 0 -120 31z" />
    <glyph glyph-name="Scommaaccent.small" horiz-adv-x="543" 
d="M28 57l65 141q51 -43 159 -43q61 0 61 23q0 14 -27.5 23.5t-66.5 20t-78.5 28t-67 55t-27.5 92.5q0 88 65.5 131.5t161.5 43.5q131 0 221 -55l-62 -141q-69 37 -148 37q-35 0 -35 -17q0 -13 27.5 -23.5t66.5 -22.5t78 -30t66.5 -55.5t27.5 -90.5t-23 -91t-61.5 -57
t-77.5 -27.5t-82 -8.5q-154 0 -243 67zM181 -235q56 52 56 107q0 34 -26 60l108 38q33 -39 33 -78q0 -64 -80 -127h-91z" />
    <glyph glyph-name="germandbls.small" horiz-adv-x="531" 
d="M50 0v366q0 100 57 152.5t145 52.5q86 0 143.5 -48.5t57.5 -117.5q0 -75 -41 -112q47 -17 75.5 -55t28.5 -92q0 -74 -53 -116t-133 -42q-39 0 -74 9l30 164q8 -4 23 -4q31 0 31 28q0 38 -75 38h-13v120h13q21 0 21 34q0 38 -28 38q-26 0 -26 -51v-364h-182z" />
    <glyph glyph-name="Tcaron.small" horiz-adv-x="568" 
d="M549 564v-160h-171v-404h-188v404h-171v160h530zM198 605l-132 179h127l91 -98l91 98h128l-132 -179h-173z" />
    <glyph glyph-name="Tcommaaccent.small" horiz-adv-x="568" 
d="M549 564v-160h-171v-404h-188v404h-171v160h530zM192 -235q56 52 56 107q0 34 -26 60l108 38q33 -39 33 -78q0 -64 -80 -127h-91z" />
    <glyph glyph-name="Tbar.small" horiz-adv-x="568" 
d="M549 564v-160h-171v-54h108v-99h-108v-251h-188v251h-108v99h108v54h-171v160h530z" />
    <glyph glyph-name="Ugrave.small" horiz-adv-x="604" 
d="M302 158q29 0 48 21t19 57v328h188v-334q0 -113 -73 -177.5t-182 -64.5t-182 64.5t-73 177.5v334h188v-328q0 -36 19 -57t48 -21zM247 605l-145 179h174l105 -179h-134z" />
    <glyph glyph-name="Uacute.small" horiz-adv-x="604" 
d="M302 158q29 0 48 21t19 57v328h188v-334q0 -113 -73 -177.5t-182 -64.5t-182 64.5t-73 177.5v334h188v-328q0 -36 19 -57t48 -21zM242 605l105 179h175l-145 -179h-135z" />
    <glyph glyph-name="Ucircumflex.small" horiz-adv-x="604" 
d="M302 158q29 0 48 21t19 57v328h188v-334q0 -113 -73 -177.5t-182 -64.5t-182 64.5t-73 177.5v334h188v-328q0 -36 19 -57t48 -21zM84 605l132 179h173l132 -179h-127l-92 98l-90 -98h-128z" />
    <glyph glyph-name="Utilde.small" horiz-adv-x="604" 
d="M107 602q0 73 29.5 115t76.5 42q33 0 67 -14.5t58 -29t34 -14.5q22 0 29 15t7 43h90q0 -73 -29.5 -115t-76.5 -42q-33 0 -67 14.5t-58 29t-34 14.5q-22 0 -29 -15t-7 -43h-90zM302 158q29 0 48 21t19 57v328h188v-334q0 -113 -73 -177.5t-182 -64.5t-182 64.5t-73 177.5
v334h188v-328q0 -36 19 -57t48 -21z" />
    <glyph glyph-name="Udieresis.small" horiz-adv-x="604" 
d="M302 158q29 0 48 21t19 57v328h188v-334q0 -113 -73 -177.5t-182 -64.5t-182 64.5t-73 177.5v334h188v-328q0 -36 19 -57t48 -21zM112 683q0 33 23.5 56t56.5 23t56.5 -23t23.5 -56t-23.5 -56t-56.5 -23t-56.5 23t-23.5 56zM333 683q0 33 23.5 56t56.5 23t56.5 -23
t23.5 -56t-23.5 -56t-56.5 -23t-56.5 23t-23.5 56z" />
    <glyph glyph-name="Umacron.small" horiz-adv-x="604" 
d="M302 158q29 0 48 21t19 57v328h188v-334q0 -113 -73 -177.5t-182 -64.5t-182 64.5t-73 177.5v334h188v-328q0 -36 19 -57t48 -21zM169 637v105h266v-105h-266z" />
    <glyph glyph-name="Ubreve.small" horiz-adv-x="604" 
d="M302 158q29 0 48 21t19 57v328h188v-334q0 -113 -73 -177.5t-182 -64.5t-182 64.5t-73 177.5v334h188v-328q0 -36 19 -57t48 -21zM302 602q-66 0 -107 45t-41 108h91q0 -22 16 -37.5t41 -15.5q24 0 39.5 15.5t15.5 37.5h93q0 -63 -41 -108t-107 -45z" />
    <glyph glyph-name="Uring.small" horiz-adv-x="604" 
d="M185 709q0 49 34 83t83 34t83 -34t34 -83t-34 -83t-83 -34t-83 34t-34 83zM261 709q0 -18 12 -31t29 -13t29 13t12 31t-12 30.5t-29 12.5t-29 -12.5t-12 -30.5zM302 158q29 0 48 21t19 57v328h188v-334q0 -113 -73 -177.5t-182 -64.5t-182 64.5t-73 177.5v334h188v-328
q0 -36 19 -57t48 -21z" />
    <glyph glyph-name="Uhungarumlaut.small" horiz-adv-x="620" 
d="M302 158q29 0 48 21t19 57v328h188v-334q0 -113 -73 -177.5t-182 -64.5t-182 64.5t-73 177.5v334h188v-328q0 -36 19 -57t48 -21zM117 606l78 152h173l-134 -152h-117zM322 606l78 152h173l-134 -152h-117z" />
    <glyph glyph-name="Uogonek.small" horiz-adv-x="604" 
d="M302 158q29 0 48 21t19 57v328h188v-334q0 -86 -44 -145t-117 -83q-33 -30 -33 -72q0 -23 14.5 -37.5t42.5 -14.5q7 0 16.5 2.5t10.5 2.5l21 -67q-49 -36 -110 -36q-38 0 -66 24.5t-28 67.5q0 58 35 116q-108 1 -180 65.5t-72 176.5v334h188v-328q0 -36 19 -57t48 -21z
" />
    <glyph glyph-name="Wgrave.small" horiz-adv-x="832" 
d="M151 0l-143 564h181l84 -344l58 344h168l59 -344l85 344h181l-143 -564h-212l-54 318l-52 -318h-212zM377 605l-145 179h174l105 -179h-134z" />
    <glyph glyph-name="Wacute.small" horiz-adv-x="832" 
d="M151 0l-143 564h181l84 -344l58 344h168l59 -344l85 344h181l-143 -564h-212l-54 318l-52 -318h-212zM322 605l105 179h175l-145 -179h-135z" />
    <glyph glyph-name="Wcircumflex.small" horiz-adv-x="832" 
d="M151 0l-143 564h181l84 -344l58 344h168l59 -344l85 344h181l-143 -564h-212l-54 318l-52 -318h-212zM197 605l132 179h173l132 -179h-127l-92 98l-90 -98h-128z" />
    <glyph glyph-name="Wdieresis.small" horiz-adv-x="832" 
d="M151 0l-143 564h181l84 -344l58 344h168l59 -344l85 344h181l-143 -564h-212l-54 318l-52 -318h-212zM225 683q0 33 23.5 56t56.5 23t56.5 -23t23.5 -56t-23.5 -56t-56.5 -23t-56.5 23t-23.5 56zM446 683q0 33 23.5 56t56.5 23t56.5 -23t23.5 -56t-23.5 -56t-56.5 -23
t-56.5 23t-23.5 56z" />
    <glyph glyph-name="Ygrave.small" horiz-adv-x="604" 
d="M8 564h200l94 -177l94 177h200l-200 -322v-242h-188v242zM260 605l-145 179h174l105 -179h-134z" />
    <glyph glyph-name="Yacute.small" horiz-adv-x="604" 
d="M8 564h200l94 -177l94 177h200l-200 -322v-242h-188v242zM209 605l105 179h175l-145 -179h-135z" />
    <glyph glyph-name="Ycircumflex.small" horiz-adv-x="604" 
d="M8 564h200l94 -177l94 177h200l-200 -322v-242h-188v242zM84 605l132 179h173l132 -179h-127l-92 98l-90 -98h-128z" />
    <glyph glyph-name="Ydieresis.small" horiz-adv-x="604" 
d="M112 683q0 33 23.5 56t56.5 23t56.5 -23t23.5 -56t-23.5 -56t-56.5 -23t-56.5 23t-23.5 56zM333 683q0 33 23.5 56t56.5 23t56.5 -23t23.5 -56t-23.5 -56t-56.5 -23t-56.5 23t-23.5 56zM8 564h200l94 -177l94 177h200l-200 -322v-242h-188v242z" />
    <glyph glyph-name="Zacute.small" horiz-adv-x="523" 
d="M19 0v134l240 270h-228v160h466v-136l-239 -268h246v-160h-485zM153 605l105 179h175l-145 -179h-135z" />
    <glyph glyph-name="Zcaron.small" horiz-adv-x="523" 
d="M19 0v134l240 270h-228v160h466v-136l-239 -268h246v-160h-485zM175 605l-132 179h127l91 -98l91 98h128l-132 -179h-173z" />
    <glyph glyph-name="Zdotaccent.small" horiz-adv-x="523" 
d="M19 0v134l240 270h-228v160h466v-136l-239 -268h246v-160h-485zM170 705q0 37 26.5 63.5t64.5 26.5t64.5 -26.5t26.5 -63.5t-26.5 -63.5t-64.5 -26.5t-64.5 26.5t-26.5 63.5z" />
    <glyph glyph-name="Eng.small" horiz-adv-x="622" 
d="M50 0v564h168l166 -255v255h188v-531q0 -75 -60 -144.5t-169 -81.5l-32 118q74 20 86 86l-159 244v-255h-188z" />
    <glyph glyph-name="Eth.small" horiz-adv-x="632" 
d="M50 0v237h-56v99h56v228h240q140 0 225 -81.5t85 -200.5t-85 -200.5t-225 -81.5h-240zM238 160h49q53 0 84.5 34t31.5 88t-31.5 88t-84.5 34h-49v-68h67v-99h-67v-77z" />
    <glyph glyph-name="Thorn.small" horiz-adv-x="534" 
d="M50 0v564h188v-65h50q91 0 154.5 -61.5t63.5 -148.5t-64 -148.5t-154 -61.5h-50v-79h-188zM238 224h28q26 0 42.5 19t16.5 46t-16.5 46t-42.5 19h-28v-130z" />
    <glyph glyph-name="cent.oldstyle" horiz-adv-x="567" 
d="M270 -57v106q-81 19 -131.5 82t-50.5 145t50.5 145t131.5 83v106h131v-108q47 -13 91 -48l-89 -109q-27 19 -64 19t-63 -25t-26 -63t27.5 -62.5t68.5 -24.5q38 0 72 23l78 -114q-40 -34 -95 -48v-107h-131z" />
    <glyph glyph-name="sterling.oldstyle" horiz-adv-x="567" 
d="M95 0v149h49v71h-50v115h50v30q0 98 51.5 152t131.5 54q81 0 163 -54l-81 -116q-29 17 -54 17q-27 0 -27 -41v-42h93v-115h-93v-60h162v-160h-395z" />
    <glyph glyph-name="florin.oldstyle" horiz-adv-x="567" 
d="M455 268h-84l-46 -183q-28 -111 -77 -154t-114 -43q-42 0 -82 20t-68 54l89 106q11 -19 33 -19q27 0 37 36l46 183h-54l30 115h54l10 40q38 148 154 148q71 0 141 -44l-39 -104l-3 1q-2 2 -6 3.5t-9.5 3.5t-12 3t-12.5 1q-29 0 -37 -33l-5 -19h85z" />
    <glyph glyph-name="yen.oldstyle" horiz-adv-x="567" 
d="M88 306h92l-145 258h181l67 -175l67 175h181l-145 -258h92v-79h-103v-33h104v-79h-104v-115h-184v115h-103v79h103v33h-103v79z" />
    <glyph glyph-name="Euro.oldstyle" horiz-adv-x="567" 
d="M421 293h-131q0 -27 1 -33h124l-23 -79h-73q27 -32 75 -32q45 0 69 33l101 -98q-69 -94 -187 -94q-89 0 -153.5 51.5t-88.5 139.5h-90l22 79h55v33h-63l23 79h51q23 91 88 145t156 54q107 0 172 -76l-91 -111q-24 28 -64 28q-53 0 -81 -40h131z" />
    <glyph glyph-name="dollar.oldstyle" horiz-adv-x="567" 
d="M222 -104v116q-103 13 -151 53l46 124q49 -33 140 -33q3 0 9.5 1t16.5 3t17 6.5t7 11.5q0 4 -2.5 7.5t-9.5 6t-12 4t-17.5 4.5t-18.5 5q-28 7 -45.5 13t-44.5 20t-43 31.5t-28 47t-12 66.5q0 60 40 100t108 53v120h131v-119q70 -12 131 -38l-50 -128q-67 30 -127 30
q-35 0 -35 -16q0 -12 23 -20.5t56 -18.5t65.5 -26.5t55.5 -51.5t23 -86q0 -69 -39 -109t-103 -55v-122h-131z" />
    </font>
</defs>
</svg>
